<?xml version="1.0" standalone="no"?>
<!DOCTYPE svg PUBLIC "-//W3C//DTD SVG 1.1//EN" "http://www.w3.org/Graphics/SVG/1.1/DTD/svg11.dtd" >
<svg xmlns="http://www.w3.org/2000/svg">
<metadata></metadata>
<defs>
<font id="featherregular" horiz-adv-x="3072" >
<font-face units-per-em="3072" ascent="2304" descent="-768" />
<missing-glyph horiz-adv-x="600" />
<glyph unicode=" "  horiz-adv-x="600" />
<glyph unicode="&#x09;" horiz-adv-x="600" />
<glyph unicode="&#xa0;" horiz-adv-x="600" />
<glyph unicode="&#x2000;" horiz-adv-x="1152" />
<glyph unicode="&#x2001;" horiz-adv-x="2304" />
<glyph unicode="&#x2002;" horiz-adv-x="1152" />
<glyph unicode="&#x2003;" horiz-adv-x="2304" />
<glyph unicode="&#x2004;" horiz-adv-x="768" />
<glyph unicode="&#x2005;" horiz-adv-x="576" />
<glyph unicode="&#x2006;" horiz-adv-x="384" />
<glyph unicode="&#x2007;" horiz-adv-x="384" />
<glyph unicode="&#x2008;" horiz-adv-x="288" />
<glyph unicode="&#x2009;" horiz-adv-x="460" />
<glyph unicode="&#x200a;" horiz-adv-x="128" />
<glyph unicode="&#x202f;" horiz-adv-x="460" />
<glyph unicode="&#x205f;" horiz-adv-x="576" />
<glyph unicode="&#x2400;" horiz-adv-x="600" />
<glyph unicode="&#x25fc;" horiz-adv-x="500" d="M0 0z" />
<glyph unicode="&#xe000;" d="M1536 1920q209 0 406.5 -63.5t346.5 -165t280.5 -224.5t221 -246t155 -224.5t96.5 -164.5l30 -64q-7 -15 -19 -40.5t-56.5 -104t-95 -155t-133 -180t-170.5 -193t-208.5 -180.5t-247 -154.5t-284.5 -104t-322 -40.5q-209 0 -406.5 63.5t-346.5 164.5t-280.5 223 t-221 244.5t-155 223.5t-96.5 165l-30 63q7 15 19 40.5t56.5 104.5t95 155.5t133 181t170.5 194t208.5 181t247 155.5t284.5 104.5t322 40.5zM1536 1664q-140 0 -275 -37t-243.5 -95.5t-212 -141.5t-179 -163.5t-146.5 -173t-113 -158.5t-79 -132q37 -65 79 -130.5t113 -157 t146.5 -171t179 -161.5t212 -140t243.5 -94.5t275 -36.5t275 37t243.5 95t212 140.5t179 162.5t146.5 172t113 158t79 131q-37 65 -79 131t-113 158t-146.5 172t-179 162.5t-212 140.5t-243.5 95t-275 37zM1536 1280q212 0 362 -150t150 -362t-150 -362t-362 -150t-362 150 t-150 362t150 362t362 150zM1536 1024q-106 0 -181 -75t-75 -181t75 -181t181 -75t181 75t75 181t-75 181t-181 75z" />
<glyph unicode="&#xe001;" d="M2022 2304q125 0 240 -47q120 -48 212 -140q93 -94 140 -211q46 -113 46 -240t-46 -240q-47 -117 -140 -211l-1178 -1178q-54 -54 -128 -85q-72 -28 -144 -28t-144 28q-74 31 -128 85q-56 56 -84 127q-28 68 -28 144q0 77 28 145q28 70 84 127l1087 1086q38 38 91 38 q52 0 90 -38t38 -90q0 -53 -38 -91l-1087 -1086q-37 -37 -37 -91q0 -53 37 -90q40 -38 91 -38t91 38l1178 1178q111 111 111 270t-111 270q-114 112 -271 112q-158 0 -270 -112l-1181 -1175q-92 -92 -140 -212q-47 -115 -47 -241q0 -124 47 -241q48 -119 140 -211 q95 -94 212 -141t241 -47t241 47t212 141l1176 1176q38 38 91 38q52 0 90 -38t38 -90q0 -53 -38 -91l-1176 -1176q-129 -129 -297 -197q-160 -66 -337 -66q-176 0 -337 66q-168 68 -297 197q-128 128 -196 296q-66 162 -66 337q0 176 66 337q67 166 196 297h1l1180 1175 q92 92 211 140q117 47 240 47z" />
<glyph unicode="&#xe002;" d="M512 1920h2048q159 0 271.5 -112.5t112.5 -271.5v-1536q0 -159 -112.5 -271.5t-271.5 -112.5h-2048q-159 0 -271.5 112.5t-112.5 271.5v1536q0 159 112.5 271.5t271.5 112.5zM2688 0v1398l-1072 -858q-34 -28 -80 -28t-80 28l-1072 858v-1398q0 -53 37.5 -90.5 t90.5 -37.5h2048q53 0 90.5 37.5t37.5 90.5zM2560 1664h-2048q-19 0 -42 -7l1066 -853l1066 853q-23 7 -42 7z" />
<glyph unicode="&#xe003;" d="M1024 1792h1024q208 0 397.5 -81t327 -218.5t218.5 -327t81 -397.5t-81 -397.5t-218.5 -327t-327 -218.5t-397.5 -81h-1024q-208 0 -397.5 81t-327 218.5t-218.5 327t-81 397.5t81 397.5t218.5 327t327 218.5t397.5 81zM1024 1280q212 0 362 -150t150 -362t-150 -362 t-362 -150t-362 150t-150 362t150 362t362 150zM1024 1024q-106 0 -181 -75t-75 -181t75 -181t181 -75t181 75t75 181t-75 181t-181 75zM2048 1536h-1024q-209 0 -385.5 -103t-279.5 -279.5t-103 -385.5t103 -385.5t279.5 -279.5t385.5 -103h1024q209 0 385.5 103 t279.5 279.5t103 385.5t-103 385.5t-279.5 279.5t-385.5 103z" />
<glyph unicode="&#xe004;" d="M512 2176h2048q159 0 271.5 -112.5t112.5 -271.5v-2048q0 -159 -112.5 -271.5t-271.5 -112.5h-2048q-159 0 -271.5 112.5t-112.5 271.5v2048q0 159 112.5 271.5t271.5 112.5zM1024 -384v1536h-640v-1408q0 -53 37.5 -90.5t90.5 -37.5h512zM2688 -256v1408h-1408v-1536 h1280q53 0 90.5 37.5t37.5 90.5zM2560 1920h-2048q-53 0 -90.5 -37.5t-37.5 -90.5v-384h2304v384q0 53 -37.5 90.5t-90.5 37.5z" />
<glyph unicode="&#xe005;" d="M2176 2176q151 0 291.5 -57t251.5 -168t168 -251.5t57 -291.5q0 -150 -57.5 -291.5t-167.5 -251.5l-384 -384q-11 -11 -33 -31q-107 -95 -239 -144.5t-271 -49.5q-175 0 -331 75q-117 55 -212 150t-150 212q75 75 181 75q37 0 75 -11q65 -105 170 -170q123 -75 267 -75 q100 0 194 38t168 112l384 384q74 74 112 168t38 194t-38 194t-112 168t-168 112t-194 38t-194 -38t-168 -112l-269 -269q-128 35 -265 35q-22 0 -62 -2q20 22 31 33l384 384q110 110 251.5 167.5t291.5 57.5zM1280 1280q175 0 331 -75q117 -55 212 -150t150 -212 q-75 -75 -181 -75q-37 0 -75 11q-65 105 -170 170q-123 75 -267 75q-100 0 -194 -38t-168 -112l-384 -384q-74 -74 -112 -168t-38 -194t38 -194t112 -168t168 -112t194 -38t194 38t168 112l269 269q128 -35 265 -35q22 0 62 2q-20 -22 -31 -33l-384 -384 q-111 -111 -251.5 -168t-291.5 -57q-150 0 -291.5 57.5t-251.5 167.5q-111 111 -168 251.5t-57 291.5t57 291.5t168 251.5l384 384q11 11 33 31q107 95 239 144.5t271 49.5z" />
<glyph unicode="&#xe006;" d="M1536 2176q165 0 312 -53.5t261 -147.5t205 -223.5t151.5 -280t94.5 -319.5q101 -507 214.5 -801.5t297.5 -478.5h-1174q22 -63 22 -128q0 -159 -112.5 -271.5t-271.5 -112.5t-271.5 112.5t-112.5 271.5q0 65 22 128h-1174q184 184 297.5 478.5t214.5 801.5 q34 169 94.5 319.5t151.5 280t205 223.5t261 147.5t312 53.5zM1536 -128q-53 0 -90.5 -37.5t-37.5 -90.5t37.5 -90.5t90.5 -37.5t90.5 37.5t37.5 90.5t-37.5 90.5t-90.5 37.5zM1536 1920q-116 0 -218.5 -36t-175.5 -92t-135.5 -134.5t-101.5 -152.5t-70.5 -158t-46.5 -138.5 t-25 -106.5q-128 -645 -282 -974h2110q-154 329 -282 974q-10 52 -25 106.5t-46.5 138.5t-70.5 158t-101.5 152.5t-135.5 134.5t-175.5 92t-218.5 36z" />
<glyph unicode="&#xe007;" d="M1536 2176q209 0 385.5 -103t279.5 -279.5t103 -385.5v-512h256q159 0 271.5 -112.5t112.5 -271.5v-768q0 -159 -112.5 -271.5t-271.5 -112.5h-2048q-159 0 -271.5 112.5t-112.5 271.5v768q0 159 112.5 271.5t271.5 112.5h256v512q0 209 103 385.5t279.5 279.5t385.5 103 zM2560 640h-2048q-53 0 -90.5 -37.5t-37.5 -90.5v-768q0 -53 37.5 -90.5t90.5 -37.5h2048q53 0 90.5 37.5t37.5 90.5v768q0 53 -37.5 90.5t-90.5 37.5zM1536 1920q-212 0 -362 -150t-150 -362v-512h1024v512q0 212 -150 362t-362 150z" />
<glyph unicode="&#xe008;" d="M1536 2176q209 0 385.5 -103t279.5 -279.5t103 -385.5v-128q0 -53 -37.5 -90.5t-90.5 -37.5t-90.5 37.5t-37.5 90.5v128q0 212 -150 362t-362 150t-362 -150t-150 -362v-512h1536q159 0 271.5 -112.5t112.5 -271.5v-768q0 -159 -112.5 -271.5t-271.5 -112.5h-2048 q-159 0 -271.5 112.5t-112.5 271.5v768q0 159 112.5 271.5t271.5 112.5h256v512q0 209 103 385.5t279.5 279.5t385.5 103zM2560 640h-2048q-53 0 -90.5 -37.5t-37.5 -90.5v-768q0 -53 37.5 -90.5t90.5 -37.5h2048q53 0 90.5 37.5t37.5 90.5v768q0 53 -37.5 90.5t-90.5 37.5z " />
<glyph unicode="&#xe009;" d="M896 2176h1280q159 0 271.5 -112.5t112.5 -271.5v-2432l-1024 768l-1024 -768v2432q0 159 112.5 271.5t271.5 112.5zM2176 1920h-1280q-53 0 -90.5 -37.5t-37.5 -90.5v-1920l768 576l768 -576v1920q0 53 -37.5 90.5t-90.5 37.5z" />
<glyph unicode="&#xe010;" d="M512 2176h2048q159 0 271.5 -112.5t112.5 -271.5v-2048q0 -159 -112.5 -271.5t-271.5 -112.5h-2048q-159 0 -271.5 112.5t-112.5 271.5v2048q0 159 112.5 271.5t271.5 112.5zM2688 75l-640 640l-1099 -1099h1611q53 0 90.5 37.5t37.5 90.5v331zM2560 1920h-2048 q-53 0 -90.5 -37.5t-37.5 -90.5v-2048q0 -53 37.5 -90.5t90.5 -37.5h75l1461 1461l640 -640v1355q0 53 -37.5 90.5t-90.5 37.5zM1024 1664q159 0 271.5 -112.5t112.5 -271.5t-112.5 -271.5t-271.5 -112.5t-271.5 112.5t-112.5 271.5t112.5 271.5t271.5 112.5zM1024 1408 q-53 0 -90.5 -37.5t-37.5 -90.5t37.5 -90.5t90.5 -37.5t90.5 37.5t37.5 90.5t-37.5 90.5t-90.5 37.5z" />
<glyph unicode="&#xe011;" d="M1536 1792q393 0 765 -138t675 -406q43 -37 43 -96q0 -50 -32 -85l-6 -6q-37 -37 -90 -37q-50 0 -85 32q-267 236 -595.5 358t-674.5 122t-674.5 -122t-595.5 -358q-35 -32 -85 -32q-59 0 -96 43q-32 35 -32 85q0 59 43 96q304 268 675.5 406t764.5 138zM1537 256 q174 0 323 -88q30 -18 47 -47.5t17 -63.5t-18 -64q-9 -15 -20 -26q-37 -37 -91 -37q-36 0 -64 17q-91 53 -194 53q-104 0 -195 -53q-32 -18 -65 -18q-73 0 -111 63q-18 30 -18 64q0 73 63 111q151 89 326 89zM1536 1023q242 0 471 -80t420 -237q47 -38 47 -99q0 -46 -29 -81 q-6 -8 -8 -10q-37 -37 -90 -37q-47 0 -82 29q-156 128 -344 194t-385 66t-385 -66t-344 -194q-35 -29 -81 -29q-61 0 -99 47q-29 35 -29 81q0 61 47 99q190 157 420 237t471 80z" />
<glyph unicode="&#xe012;" d="M1536 2176q287 0 547.5 -111.5t449 -300t300 -449t111.5 -547.5t-111.5 -547.5t-300 -449t-449 -300t-547.5 -111.5t-547.5 111.5t-449 300t-300 449t-111.5 547.5t111.5 547.5t300 449t449 300t547.5 111.5zM1536 1920q-234 0 -447.5 -91.5t-367.5 -245.5t-245.5 -367.5 t-91.5 -447.5t91.5 -447.5t245.5 -367.5t367.5 -245.5t447.5 -91.5t447.5 91.5t367.5 245.5t245.5 367.5t91.5 447.5t-91.5 447.5t-245.5 367.5t-367.5 245.5t-447.5 91.5zM1536 1664q182 0 348 -71t286 -191t191 -286t71 -348t-71 -348t-191 -286t-286 -191t-348 -71 t-348 71t-286 191t-191 286t-71 348t71 348t191 286t286 191t348 71zM1536 1408q-130 0 -248.5 -51t-204 -136.5t-136.5 -204t-51 -248.5t51 -248.5t136.5 -204t204 -136.5t248.5 -51t248.5 51t204 136.5t136.5 204t51 248.5t-51 248.5t-136.5 204t-204 136.5t-248.5 51z M1536 1152q159 0 271.5 -112.5t112.5 -271.5t-112.5 -271.5t-271.5 -112.5t-271.5 112.5t-112.5 271.5t112.5 271.5t271.5 112.5zM1536 896q-53 0 -90.5 -37.5t-37.5 -90.5t37.5 -90.5t90.5 -37.5t90.5 37.5t37.5 90.5t-37.5 90.5t-90.5 37.5z" />
<glyph unicode="&#xe013;" d="M1280 2176h512q124 0 223 -71.5t139 -184.5h150q159 0 271.5 -112.5t112.5 -271.5v-1792q0 -159 -112.5 -271.5t-271.5 -112.5h-1536q-159 0 -271.5 112.5t-112.5 271.5v1792q0 159 112.5 271.5t271.5 112.5h150q40 113 139 184.5t223 71.5zM2304 1664h-150 q-40 -113 -139 -184.5t-223 -71.5h-512q-124 0 -223 71.5t-139 184.5h-150q-53 0 -90.5 -37.5t-37.5 -90.5v-1792q0 -53 37.5 -90.5t90.5 -37.5h1536q53 0 90.5 37.5t37.5 90.5v1792q0 53 -37.5 90.5t-90.5 37.5zM1792 1920h-512q-53 0 -90.5 -37.5t-37.5 -90.5t37.5 -90.5 t90.5 -37.5h512q53 0 90.5 37.5t37.5 90.5t-37.5 90.5t-90.5 37.5z" />
<glyph unicode="&#xe014;" d="M1536 2176q287 0 547.5 -111.5t449 -300t300 -449t111.5 -547.5t-111.5 -547.5t-300 -449t-449 -300t-547.5 -111.5t-547.5 111.5t-449 300t-300 449t-111.5 547.5t111.5 547.5t300 449t449 300t547.5 111.5zM1536 1920q-234 0 -447.5 -91.5t-367.5 -245.5t-245.5 -367.5 t-91.5 -447.5t91.5 -447.5t245.5 -367.5t367.5 -245.5t447.5 -91.5t447.5 91.5t367.5 245.5t245.5 367.5t91.5 447.5t-91.5 447.5t-245.5 367.5t-367.5 245.5t-447.5 91.5zM1536 1664q53 0 90.5 -37.5t37.5 -90.5v-715l347 -346q37 -37 37 -91t-37 -91t-91 -37t-91 37 l-384 384q-37 37 -37 91v768q0 53 37.5 90.5t90.5 37.5z" />
<glyph unicode="&#xe015;" d="M1152 2304h768q159 0 271.5 -112.5t112.5 -271.5v-294q180 -160 282 -383.5t102 -474.5t-102 -474t-282 -384v-294q0 -159 -112.5 -271.5t-271.5 -112.5h-768q-159 0 -271.5 112.5t-112.5 271.5v294q-180 161 -282 384t-102 474t102 474.5t282 383.5v294 q0 159 112.5 271.5t271.5 112.5zM2048 -384v120q-240 -120 -512 -120t-512 120v-120q0 -53 37.5 -90.5t90.5 -37.5h768q53 0 90.5 37.5t37.5 90.5zM1536 1664q-182 0 -348 -71t-286 -191t-191 -286t-71 -348t71 -348t191 -286t286 -191t348 -71t348 71t286 191t191 286 t71 348t-71 348t-191 286t-286 191t-348 71zM1536 1408q53 0 90.5 -37.5t37.5 -90.5v-459l219 -218q37 -37 37 -91t-37 -91t-91 -37t-91 37l-256 256q-37 37 -37 91v512q0 53 37.5 90.5t90.5 37.5zM1920 2048h-768q-53 0 -90.5 -37.5t-37.5 -90.5v-120q240 120 512 120 t512 -120v120q0 53 -37.5 90.5t-90.5 37.5z" />
<glyph unicode="&#xe016;" d="M512 2048h2048q159 0 271.5 -112.5t112.5 -271.5v-1280q0 -159 -112.5 -271.5t-271.5 -112.5h-320l-192 256h512q53 0 90.5 37.5t37.5 90.5v1280q0 53 -37.5 90.5t-90.5 37.5h-2048q-53 0 -90.5 -37.5t-37.5 -90.5v-1280q0 -53 37.5 -90.5t90.5 -37.5h512l-192 -256h-320 q-159 0 -271.5 112.5t-112.5 271.5v1280q0 159 112.5 271.5t271.5 112.5zM1792 -256l-256 341l-256 -341h512zM768 -512l768 1024l768 -1024h-1536z" />
<glyph unicode="&#xe017;" d="M1024 2048h1024l256 -384h384q159 0 271.5 -114.5t112.5 -273.5v-1406q0 -159 -112.5 -270.5t-271.5 -111.5h-2304q-159 0 -271.5 112.5t-112.5 271.5v1406q0 159 112.5 272.5t271.5 113.5h384zM1536 1280q130 0 248.5 -51t204 -136.5t136.5 -204t51 -248.5t-51 -248.5 t-136.5 -204t-204 -136.5t-248.5 -51t-248.5 51t-204 136.5t-136.5 204t-51 248.5t51 248.5t136.5 204t204 136.5t248.5 51zM1536 1024q-159 0 -271.5 -112.5t-112.5 -271.5t112.5 -271.5t271.5 -112.5t271.5 112.5t112.5 271.5t-112.5 271.5t-271.5 112.5zM2167 1408 l-251 384h-755l-256 -384h-521q-53 0 -90.5 -38t-37.5 -92v-1406q0 -53 37.5 -90.5t90.5 -37.5h2304q54 0 91 36.5t37 89.5v1406q0 54 -38 93t-90 39h-521z" />
<glyph unicode="&#xe018;" d="M384 1664h1408q159 0 271.5 -112.5t112.5 -271.5v-233l896 489v-1536l-896 489v-233q0 -159 -112.5 -271.5t-271.5 -112.5h-1408q-159 0 -271.5 112.5t-112.5 271.5v1024q0 159 112.5 271.5t271.5 112.5zM1792 1408h-1408q-53 0 -90.5 -37.5t-37.5 -90.5v-1024 q0 -53 37.5 -90.5t90.5 -37.5h1408q53 0 90.5 37.5t37.5 90.5v1024q0 53 -37.5 90.5t-90.5 37.5zM2816 431v674l-617 -337z" />
<glyph unicode="&#xe019;" d="M1536 2176q287 0 547.5 -111.5t449 -300t300 -449t111.5 -547.5t-111.5 -547.5t-300 -449t-449 -300t-547.5 -111.5t-547.5 111.5t-449 300t-300 449t-111.5 547.5t111.5 547.5t300 449t449 300t547.5 111.5zM1536 1920q-234 0 -447.5 -91.5t-367.5 -245.5t-245.5 -367.5 t-91.5 -447.5t91.5 -447.5t245.5 -367.5t367.5 -245.5t447.5 -91.5t447.5 91.5t367.5 245.5t245.5 367.5t91.5 447.5t-91.5 447.5t-245.5 367.5t-367.5 245.5t-447.5 91.5zM1536 1280q212 0 362 -150t150 -362t-150 -362t-362 -150t-362 150t-150 362t150 362t362 150z M1536 1024q-106 0 -181 -75t-75 -181t75 -181t181 -75t181 75t75 181t-75 181t-181 75z" />
<glyph unicode="&#xe020;" d="M1152 2048h768q159 0 271.5 -112.5t112.5 -271.5v-640h256q159 0 271.5 -112.5t112.5 -271.5v-512q0 -159 -112.5 -271.5t-271.5 -112.5h-278q-40 -113 -139 -184.5t-223 -71.5h-768q-124 0 -223 71.5t-139 184.5h-278q-159 0 -271.5 112.5t-112.5 271.5v512 q0 159 112.5 271.5t271.5 112.5h256v640q0 159 112.5 271.5t271.5 112.5zM1920 0h-768q-53 0 -90.5 -37.5t-37.5 -90.5t37.5 -90.5t90.5 -37.5h768q53 0 90.5 37.5t37.5 90.5t-37.5 90.5t-90.5 37.5zM2560 768h-2048q-53 0 -90.5 -37.5t-37.5 -90.5v-512q0 -53 37.5 -90.5 t90.5 -37.5h278q40 113 139 184.5t223 71.5h768q124 0 223 -71.5t139 -184.5h278q53 0 90.5 37.5t37.5 90.5v512q0 53 -37.5 90.5t-90.5 37.5zM1920 1792h-768q-53 0 -90.5 -37.5t-37.5 -90.5v-640h1024v640q0 53 -37.5 90.5t-90.5 37.5z" />
<glyph unicode="&#xe021;" d="M512 2048h2048q159 0 271.5 -112.5t112.5 -271.5v-1280q0 -159 -112.5 -271.5t-271.5 -112.5h-896v-256h384q53 0 90.5 -37.5t37.5 -90.5t-37.5 -90.5t-90.5 -37.5h-1024q-53 0 -90.5 37.5t-37.5 90.5t37.5 90.5t90.5 37.5h384v256h-896q-159 0 -271.5 112.5 t-112.5 271.5v1280q0 159 112.5 271.5t271.5 112.5zM2560 1792h-2048q-53 0 -90.5 -37.5t-37.5 -90.5v-1280q0 -53 37.5 -90.5t90.5 -37.5h2048q53 0 90.5 37.5t37.5 90.5v1280q0 53 -37.5 90.5t-90.5 37.5z" />
<glyph unicode="&#xe022;" d="M1536 2176q262 0 507 -31.5t449.5 -92t328 -161t123.5 -227.5v-1792q0 -127 -123.5 -227.5t-328 -161t-449.5 -92t-507 -31.5t-507 31.5t-449.5 92t-328 161t-123.5 227.5v1792q0 127 123.5 227.5t328 161t449.5 92t507 31.5zM2688 -126v583q-196 -99 -505 -150t-647 -51 t-647 51t-505 150v-585q6 -22 53.5 -53t145.5 -67t228 -66t321 -50t404 -20t404 20t321 50.5t228 66.5t145.5 67t53.5 54zM2688 770v583q-196 -99 -505 -150t-647 -51t-647 51t-505 150v-585q6 -22 53.5 -53t145.5 -67t228 -66t321 -50t404 -20t404 20t320.5 50t227.5 66 t146 67.5t54 54.5zM1536 1920q-211 0 -401 -20t-319 -49.5t-227.5 -65t-147.5 -67t-57 -54.5q8 -23 57 -54.5t147.5 -67t227.5 -65t319 -49.5t401 -20t401 20t319 49.5t227.5 65t147.5 67t57 54.5q-8 23 -57 54.5t-147.5 67t-227.5 65t-319 49.5t-401 20z" />
<glyph unicode="&#xe023;" d="M1536 2304q159 0 271.5 -112.5t112.5 -271.5v-66q47 -16 113 -46l46 46q113 113 272 113q158 0 271 -113t113 -271q0 -159 -113 -272l-46 -46q30 -66 46 -113h66q159 0 271.5 -112.5t112.5 -271.5t-112.5 -271.5t-271.5 -112.5h-66q-16 -47 -46 -113l46 -46 q113 -113 113 -272q0 -158 -113 -271t-271 -113q-159 0 -272 113l-46 46q-66 -30 -113 -46v-66q0 -159 -112.5 -271.5t-271.5 -112.5t-271.5 112.5t-112.5 271.5v66q-47 16 -113 46l-46 -46q-113 -113 -271 -113q-159 0 -271.5 113t-112.5 271q0 160 112 272l46 46 q-30 66 -46 113h-66q-159 0 -271.5 112.5t-112.5 271.5t112.5 271.5t271.5 112.5h66q16 47 46 113l-46 46q-112 112 -112 272q0 158 112.5 271t271.5 113q158 0 271 -113l46 -46q66 30 113 46v66q0 159 112.5 271.5t271.5 112.5zM1536 2048q-53 0 -90.5 -37.5t-37.5 -90.5 v-265q-224 -32 -409 -169l-187 187q-38 38 -90 38q-53 0 -90.5 -37.5t-37.5 -90.5q0 -54 37 -91l187 -187q-137 -185 -169 -409h-265q-53 0 -90.5 -37.5t-37.5 -90.5t37.5 -90.5t90.5 -37.5h265q32 -224 169 -409l-187 -187q-37 -37 -37 -91q0 -53 37.5 -90.5t90.5 -37.5 q52 0 90 38l187 187q185 -137 409 -169v-265q0 -53 37.5 -90.5t90.5 -37.5t90.5 37.5t37.5 90.5v265q224 32 409 169l187 -187q38 -38 91 -38t90.5 37.5t37.5 90.5t-38 91l-187 187q137 185 169 409h265q53 0 90.5 37.5t37.5 90.5t-37.5 90.5t-90.5 37.5h-265 q-32 224 -169 409l187 187q38 38 38 91t-37.5 90.5t-90.5 37.5t-91 -38l-187 -187q-185 137 -409 169v265q0 53 -37.5 90.5t-90.5 37.5zM1536 1280q212 0 362 -150t150 -362t-150 -362t-362 -150t-362 150t-150 362t150 362t362 150zM1536 1024q-106 0 -181 -75t-75 -181 t75 -181t181 -75t181 75t75 181t-75 181t-181 75z" />
<glyph unicode="&#xe024;" d="M2260 2048q209 0 385.5 -103t279.5 -279.5t103 -385.5q0 -150 -57.5 -291.5t-167.5 -251.5l-1267 -1267l-1267 1267q-110 110 -167.5 251.5t-57.5 291.5q0 209 103 385.5t279.5 279.5t385.5 103q151 0 291.5 -57t251.5 -168l181 -181l181 181q110 110 251.5 167.5 t291.5 57.5zM2260 1792q-100 0 -194 -38t-168 -112l-362 -362l-362 362q-74 74 -168 112t-194 38q-140 0 -257.5 -68.5t-186 -186t-68.5 -257.5q0 -100 38 -194t112 -168l1086 -1086l1086 1086q74 74 112 168t38 194q0 140 -68.5 257.5t-186 186t-257.5 68.5z" />
<glyph unicode="&#xe025;" d="M1280 2176h1152q53 0 90.5 -37.5t37.5 -90.5v-2560q0 -53 -37.5 -90.5t-90.5 -37.5t-90.5 37.5t-37.5 90.5v2432h-256v-2432q0 -53 -37.5 -90.5t-90.5 -37.5t-90.5 37.5t-37.5 90.5v1152h-512q-209 0 -385.5 103t-279.5 279.5t-103 385.5t103 385.5t279.5 279.5 t385.5 103zM1792 896v1024h-512q-212 0 -362 -150t-150 -362t150 -362t362 -150h512z" />
<glyph unicode="&#xe026;" d="M384 1664h2304q53 0 90.5 -37.5t37.5 -90.5t-37.5 -90.5t-90.5 -37.5h-2304q-53 0 -90.5 37.5t-37.5 90.5t37.5 90.5t90.5 37.5zM384 128h2304q53 0 90.5 -37.5t37.5 -90.5t-37.5 -90.5t-90.5 -37.5h-2304q-53 0 -90.5 37.5t-37.5 90.5t37.5 90.5t90.5 37.5zM384 640 h2304q53 0 90.5 -37.5t37.5 -90.5t-37.5 -90.5t-90.5 -37.5h-2304q-53 0 -90.5 37.5t-37.5 90.5t37.5 90.5t90.5 37.5zM384 1152h2304q53 0 90.5 -37.5t37.5 -90.5t-37.5 -90.5t-90.5 -37.5h-2304q-53 0 -90.5 37.5t-37.5 90.5t37.5 90.5t90.5 37.5z" />
<glyph unicode="&#xe027;" d="M384 1664h2304q53 0 90.5 -37.5t37.5 -90.5t-37.5 -90.5t-90.5 -37.5h-2304q-53 0 -90.5 37.5t-37.5 90.5t37.5 90.5t90.5 37.5zM384 128h1792q53 0 90.5 -37.5t37.5 -90.5t-37.5 -90.5t-90.5 -37.5h-1792q-53 0 -90.5 37.5t-37.5 90.5t37.5 90.5t90.5 37.5zM384 640 h2304q53 0 90.5 -37.5t37.5 -90.5t-37.5 -90.5t-90.5 -37.5h-2304q-53 0 -90.5 37.5t-37.5 90.5t37.5 90.5t90.5 37.5zM384 1152h1792q53 0 90.5 -37.5t37.5 -90.5t-37.5 -90.5t-90.5 -37.5h-1792q-53 0 -90.5 37.5t-37.5 90.5t37.5 90.5t90.5 37.5z" />
<glyph unicode="&#xe028;" d="M384 1664h2304q53 0 90.5 -37.5t37.5 -90.5t-37.5 -90.5t-90.5 -37.5h-2304q-53 0 -90.5 37.5t-37.5 90.5t37.5 90.5t90.5 37.5zM640 128h1792q53 0 90.5 -37.5t37.5 -90.5t-37.5 -90.5t-90.5 -37.5h-1792q-53 0 -90.5 37.5t-37.5 90.5t37.5 90.5t90.5 37.5zM384 640 h2304q53 0 90.5 -37.5t37.5 -90.5t-37.5 -90.5t-90.5 -37.5h-2304q-53 0 -90.5 37.5t-37.5 90.5t37.5 90.5t90.5 37.5zM640 1152h1792q53 0 90.5 -37.5t37.5 -90.5t-37.5 -90.5t-90.5 -37.5h-1792q-53 0 -90.5 37.5t-37.5 90.5t37.5 90.5t90.5 37.5z" />
<glyph unicode="&#xe029;" d="M384 1664h2304q53 0 90.5 -37.5t37.5 -90.5t-37.5 -90.5t-90.5 -37.5h-2304q-53 0 -90.5 37.5t-37.5 90.5t37.5 90.5t90.5 37.5zM896 128h1792q53 0 90.5 -37.5t37.5 -90.5t-37.5 -90.5t-90.5 -37.5h-1792q-53 0 -90.5 37.5t-37.5 90.5t37.5 90.5t90.5 37.5zM384 640 h2304q53 0 90.5 -37.5t37.5 -90.5t-37.5 -90.5t-90.5 -37.5h-2304q-53 0 -90.5 37.5t-37.5 90.5t37.5 90.5t90.5 37.5zM896 1152h1792q53 0 90.5 -37.5t37.5 -90.5t-37.5 -90.5t-90.5 -37.5h-1792q-53 0 -90.5 37.5t-37.5 90.5t37.5 90.5t90.5 37.5z" />
<glyph unicode="&#xe030;" d="M640 2176h2048v-2816h-2048q-159 0 -271.5 112.5t-112.5 271.5v2048q0 159 112.5 271.5t271.5 112.5zM2432 -384v256h-1792q-53 0 -90.5 -37.5t-37.5 -90.5t37.5 -90.5t90.5 -37.5h1792zM2432 128v1792h-1792q-53 0 -90.5 -37.5t-37.5 -90.5v-1686q63 22 128 22h1792z " />
<glyph unicode="&#xe031;" d="M0 1408l1536 768l1536 -768l-1536 -768zM1536 -161l1248 625l288 -144l-1536 -769l-1536 769l288 144zM1536 383l1248 624l288 -144l-1536 -768l-1536 768l288 144zM2500 1408l-964 482l-964 -482l964 -482z" />
<glyph unicode="&#xe032;" d="M1408 2176h1152q159 0 271.5 -112.5t112.5 -271.5v-1152q0 -159 -112.5 -271.5t-271.5 -112.5h-512v-512q0 -159 -112.5 -271.5t-271.5 -112.5h-1152q-159 0 -271.5 112.5t-112.5 271.5v1152q0 159 112.5 271.5t271.5 112.5h512v512q0 159 112.5 271.5t271.5 112.5z M1024 640v384h-512q-53 0 -90.5 -37.5t-37.5 -90.5v-1152q0 -53 37.5 -90.5t90.5 -37.5h1152q53 0 90.5 37.5t37.5 90.5v512h-384q-159 0 -271.5 112.5t-112.5 271.5zM2560 1920h-1152q-53 0 -90.5 -37.5t-37.5 -90.5v-1152q0 -53 37.5 -90.5t90.5 -37.5h1152 q53 0 90.5 37.5t37.5 90.5v1152q0 53 -37.5 90.5t-90.5 37.5z" />
<glyph unicode="&#xe033;" d="M1152 2048h1280q159 0 271.5 -112.5t112.5 -271.5v-1280q0 -159 -112.5 -271.5t-271.5 -112.5h-1280q-159 0 -271.5 112.5t-112.5 271.5v1280q0 159 112.5 271.5t271.5 112.5zM512 1514v-1642q0 -53 37.5 -90.5t90.5 -37.5h1642q-40 -113 -139 -184.5t-223 -71.5h-1280 q-159 0 -271.5 112.5t-112.5 271.5v1280q0 124 71.5 223t184.5 139zM2432 1792h-1280q-53 0 -90.5 -37.5t-37.5 -90.5v-1280q0 -53 37.5 -90.5t90.5 -37.5h1280q53 0 90.5 37.5t37.5 90.5v1280q0 53 -37.5 90.5t-90.5 37.5z" />
<glyph unicode="&#xe034;" d="M640 2304h1792q159 0 271.5 -112.5t112.5 -271.5v-2304q0 -159 -112.5 -271.5t-271.5 -112.5h-1792q-159 0 -271.5 112.5t-112.5 271.5v2304q0 159 112.5 271.5t271.5 112.5zM1024 128h1024q53 0 90.5 -37.5t37.5 -90.5t-37.5 -90.5t-90.5 -37.5h-1024q-53 0 -90.5 37.5 t-37.5 90.5t37.5 90.5t90.5 37.5zM1024 640h1024q53 0 90.5 -37.5t37.5 -90.5t-37.5 -90.5t-90.5 -37.5h-1024q-53 0 -90.5 37.5t-37.5 90.5t37.5 90.5t90.5 37.5zM2432 2048h-1792q-53 0 -90.5 -37.5t-37.5 -90.5v-2304q0 -53 37.5 -90.5t90.5 -37.5h1792q53 0 90.5 37.5 t37.5 90.5v2304q0 53 -37.5 90.5t-90.5 37.5zM1024 1152h1024q53 0 90.5 -37.5t37.5 -90.5t-37.5 -90.5t-90.5 -37.5h-1024q-53 0 -90.5 37.5t-37.5 90.5t37.5 90.5t90.5 37.5zM1024 1664h512q53 0 90.5 -37.5t37.5 -90.5t-37.5 -90.5t-90.5 -37.5h-512q-53 0 -90.5 37.5 t-37.5 90.5t37.5 90.5t90.5 37.5z" />
<glyph unicode="&#xe035;" d="M1152 2304h1280q159 0 271.5 -112.5t112.5 -271.5v-1792q0 -159 -112.5 -271.5t-271.5 -112.5h-1280q-159 0 -271.5 112.5t-112.5 271.5v1792q0 159 112.5 271.5t271.5 112.5zM512 1770v-2154q0 -53 37.5 -90.5t90.5 -37.5h1642q-40 -113 -139 -184.5t-223 -71.5h-1280 q-159 0 -271.5 112.5t-112.5 271.5v1792q0 124 71.5 223t184.5 139zM2432 2048h-1280q-53 0 -90.5 -37.5t-37.5 -90.5v-1792q0 -53 37.5 -90.5t90.5 -37.5h1280q53 0 90.5 37.5t37.5 90.5v1792q0 53 -37.5 90.5t-90.5 37.5z" />
<glyph unicode="&#xe036;" d="M1280 2176q234 0 447.5 -91.5t367.5 -245.5t245.5 -367.5t91.5 -447.5q0 -201 -65.5 -385t-186.5 -334l727 -726q37 -37 37 -91q0 -55 -36.5 -91.5t-91.5 -36.5q-54 0 -91 37l-726 727q-150 -121 -334 -186.5t-385 -65.5q-234 0 -447.5 91.5t-367.5 245.5t-245.5 367.5 t-91.5 447.5t91.5 447.5t245.5 367.5t367.5 245.5t447.5 91.5zM1280 1920q-182 0 -348 -71t-286 -191t-191 -286t-71 -348t71 -348t191 -286t286 -191t348 -71t348 71t286 191t191 286t71 348t-71 348t-191 286t-286 191t-348 71z" />
<glyph unicode="&#xe037;" d="M1280 2176q234 0 447.5 -91.5t367.5 -245.5t245.5 -367.5t91.5 -447.5q0 -201 -65.5 -385t-186.5 -334l727 -726q37 -37 37 -91q0 -55 -36.5 -91.5t-91.5 -36.5q-54 0 -91 37l-726 727q-150 -121 -334 -186.5t-385 -65.5q-234 0 -447.5 91.5t-367.5 245.5t-245.5 367.5 t-91.5 447.5t91.5 447.5t245.5 367.5t367.5 245.5t447.5 91.5zM1280 1920q-182 0 -348 -71t-286 -191t-191 -286t-71 -348t71 -348t191 -286t286 -191t348 -71t348 71t286 191t191 286t71 348t-71 348t-191 286t-286 191t-348 71zM1280 1536q53 0 90.5 -37.5t37.5 -90.5 v-256h256q53 0 90.5 -37.5t37.5 -90.5t-37.5 -90.5t-90.5 -37.5h-256v-256q0 -53 -37.5 -90.5t-90.5 -37.5t-90.5 37.5t-37.5 90.5v256h-256q-53 0 -90.5 37.5t-37.5 90.5t37.5 90.5t90.5 37.5h256v256q0 53 37.5 90.5t90.5 37.5z" />
<glyph unicode="&#xe038;" d="M1280 2176q234 0 447.5 -91.5t367.5 -245.5t245.5 -367.5t91.5 -447.5q0 -201 -65.5 -385t-186.5 -334l727 -726q37 -37 37 -91q0 -55 -36.5 -91.5t-91.5 -36.5q-54 0 -91 37l-726 727q-150 -121 -334 -186.5t-385 -65.5q-234 0 -447.5 91.5t-367.5 245.5t-245.5 367.5 t-91.5 447.5t91.5 447.5t245.5 367.5t367.5 245.5t447.5 91.5zM1280 1920q-182 0 -348 -71t-286 -191t-191 -286t-71 -348t71 -348t191 -286t286 -191t348 -71t348 71t286 191t191 286t71 348t-71 348t-191 286t-286 191t-348 71zM896 1152h768q53 0 90.5 -37.5t37.5 -90.5 t-37.5 -90.5t-90.5 -37.5h-768q-53 0 -90.5 37.5t-37.5 90.5t37.5 90.5t90.5 37.5z" />
<glyph unicode="&#xe039;" d="M1070 1839q52 0 90 -37.5t38 -90.5t-38 -91l-596 -596h1228q234 0 447.5 -91t367.5 -245.5t245.5 -367.5t91.5 -448v-128q0 -53 -37.5 -90.5t-90.5 -37.5q-52 0 -90 38t-38 90v128q0 182 -71 348t-191 286t-286 191t-348 71h-1228l596 -597q38 -38 38 -90 q0 -53 -37.5 -91t-90.5 -38t-91 38l-814 815q-37 37 -37 91q0 53 37 90l814 815q38 38 91 38z" />
<glyph unicode="&#xe040;" d="M1536 2176q287 0 547.5 -111.5t449 -300t300 -449t111.5 -547.5t-111.5 -547.5t-300 -449t-449 -300t-547.5 -111.5t-547.5 111.5t-449 300t-300 449t-111.5 547.5t111.5 547.5t300 449t449 300t547.5 111.5zM1536 1920q-234 0 -447.5 -91.5t-367.5 -245.5t-245.5 -367.5 t-91.5 -447.5t91.5 -447.5t245.5 -367.5t367.5 -245.5t447.5 -91.5t447.5 91.5t367.5 245.5t245.5 367.5t91.5 447.5t-91.5 447.5t-245.5 367.5t-367.5 245.5t-447.5 91.5zM1536 1408q53 0 90.5 -37.5t37.5 -90.5v-384h384q53 0 90.5 -37.5t37.5 -90.5t-37.5 -90.5 t-90.5 -37.5h-384v-384q0 -53 -37.5 -90.5t-90.5 -37.5t-90.5 37.5t-37.5 90.5v384h-384q-53 0 -90.5 37.5t-37.5 90.5t37.5 90.5t90.5 37.5h384v384q0 53 37.5 90.5t90.5 37.5z" />
<glyph unicode="&#xe041;" d="M1536 2176q287 0 547.5 -111.5t449 -300t300 -449t111.5 -547.5t-111.5 -547.5t-300 -449t-449 -300t-547.5 -111.5t-547.5 111.5t-449 300t-300 449t-111.5 547.5t111.5 547.5t300 449t449 300t547.5 111.5zM1536 1920q-234 0 -447.5 -91.5t-367.5 -245.5t-245.5 -367.5 t-91.5 -447.5t91.5 -447.5t245.5 -367.5t367.5 -245.5t447.5 -91.5t447.5 91.5t367.5 245.5t245.5 367.5t91.5 447.5t-91.5 447.5t-245.5 367.5t-367.5 245.5t-447.5 91.5zM1024 896h1024q53 0 90.5 -37.5t37.5 -90.5t-37.5 -90.5t-90.5 -37.5h-1024q-53 0 -90.5 37.5 t-37.5 90.5t37.5 90.5t90.5 37.5z" />
<glyph unicode="&#xe042;" d="M1536 2176q287 0 547.5 -111.5t449 -300t300 -449t111.5 -547.5t-111.5 -547.5t-300 -449t-449 -300t-547.5 -111.5t-547.5 111.5t-449 300t-300 449t-111.5 547.5t111.5 547.5t300 449t449 300t547.5 111.5zM1536 1920q-234 0 -447.5 -91.5t-367.5 -245.5t-245.5 -367.5 t-91.5 -447.5t91.5 -447.5t245.5 -367.5t367.5 -245.5t447.5 -91.5t447.5 91.5t367.5 245.5t245.5 367.5t91.5 447.5t-91.5 447.5t-245.5 367.5t-367.5 245.5t-447.5 91.5zM1967 1153q53 0 90.5 -37.5t37.5 -90.5t-38 -91l-543 -543q-37 -37 -90 -37q-54 0 -91 37l-272 271 q-37 37 -37 91q0 53 37.5 90.5t90.5 37.5t91 -38l181 -181l452 453q38 38 91 38z" />
<glyph unicode="&#xe043;" d="M1536 2176q287 0 547.5 -111.5t449 -300t300 -449t111.5 -547.5t-111.5 -547.5t-300 -449t-449 -300t-547.5 -111.5t-547.5 111.5t-449 300t-300 449t-111.5 547.5t111.5 547.5t300 449t449 300t547.5 111.5zM1536 1920q-234 0 -447.5 -91.5t-367.5 -245.5t-245.5 -367.5 t-91.5 -447.5t91.5 -447.5t245.5 -367.5t367.5 -245.5t447.5 -91.5t447.5 91.5t367.5 245.5t245.5 367.5t91.5 447.5t-91.5 447.5t-245.5 367.5t-367.5 245.5t-447.5 91.5zM1898 1259q53 0 91 -37.5t38 -90.5t-38 -91l-272 -272l272 -271q38 -38 38 -90q0 -53 -38 -90.5 t-91 -37.5t-90 37l-272 271l-271 -271q-37 -37 -91 -37q-53 0 -90.5 37t-37.5 90q0 54 37 91l272 271l-272 272q-37 37 -37 90t37.5 91t90.5 38t91 -38l271 -272l272 272q38 38 90 38z" />
<glyph unicode="&#xe044;" d="M512 2176h2048q159 0 271.5 -112.5t112.5 -271.5v-2048q0 -159 -112.5 -271.5t-271.5 -112.5h-2048q-159 0 -271.5 112.5t-112.5 271.5v2048q0 159 112.5 271.5t271.5 112.5zM2560 1920h-2048q-53 0 -90.5 -37.5t-37.5 -90.5v-2048q0 -53 37.5 -90.5t90.5 -37.5h2048 q53 0 90.5 37.5t37.5 90.5v2048q0 53 -37.5 90.5t-90.5 37.5zM1536 1408q53 0 90.5 -37.5t37.5 -90.5v-384h384q53 0 90.5 -37.5t37.5 -90.5t-37.5 -90.5t-90.5 -37.5h-384v-384q0 -53 -37.5 -90.5t-90.5 -37.5t-90.5 37.5t-37.5 90.5v384h-384q-53 0 -90.5 37.5t-37.5 90.5 t37.5 90.5t90.5 37.5h384v384q0 53 37.5 90.5t90.5 37.5z" />
<glyph unicode="&#xe045;" d="M512 2176h2048q159 0 271.5 -112.5t112.5 -271.5v-2048q0 -159 -112.5 -271.5t-271.5 -112.5h-2048q-159 0 -271.5 112.5t-112.5 271.5v2048q0 159 112.5 271.5t271.5 112.5zM2560 1920h-2048q-53 0 -90.5 -37.5t-37.5 -90.5v-2048q0 -53 37.5 -90.5t90.5 -37.5h2048 q53 0 90.5 37.5t37.5 90.5v2048q0 53 -37.5 90.5t-90.5 37.5zM1024 896h1024q53 0 90.5 -37.5t37.5 -90.5t-37.5 -90.5t-90.5 -37.5h-1024q-53 0 -90.5 37.5t-37.5 90.5t37.5 90.5t90.5 37.5z" />
<glyph unicode="&#xe046;" d="M512 2176h2048q159 0 271.5 -112.5t112.5 -271.5v-2048q0 -159 -112.5 -271.5t-271.5 -112.5h-2048q-159 0 -271.5 112.5t-112.5 271.5v2048q0 159 112.5 271.5t271.5 112.5zM2560 1920h-2048q-53 0 -90.5 -37.5t-37.5 -90.5v-2048q0 -53 37.5 -90.5t90.5 -37.5h2048 q53 0 90.5 37.5t37.5 90.5v2048q0 53 -37.5 90.5t-90.5 37.5zM2048 1213q52 0 90 -37.5t38 -90.5t-38 -91l-633 -633q-37 -37 -90 -37q-54 0 -91 37l-362 362q-37 37 -37 91q0 53 37.5 90.5t90.5 37.5q52 0 90 -38l271 -272l543 543q38 38 91 38z" />
<glyph unicode="&#xe047;" d="M512 2176h2048q159 0 271.5 -112.5t112.5 -271.5v-2048q0 -159 -112.5 -271.5t-271.5 -112.5h-2048q-159 0 -271.5 112.5t-112.5 271.5v2048q0 159 112.5 271.5t271.5 112.5zM2560 1920h-2048q-53 0 -90.5 -37.5t-37.5 -90.5v-2048q0 -53 37.5 -90.5t90.5 -37.5h2048 q53 0 90.5 37.5t37.5 90.5v2048q0 53 -37.5 90.5t-90.5 37.5zM1898 1259q53 0 91 -38t38 -91t-38 -91l-272 -271l272 -271q38 -38 38 -91t-38 -90.5t-91 -37.5t-90 37l-272 272l-272 -272q-36 -37 -90 -37q-55 0 -91.5 36.5t-36.5 91.5q0 54 37 91l272 271l-272 271 q-37 37 -37 91q0 53 37.5 91t90.5 38q54 0 90 -38l272 -272l272 272q38 38 90 38z" />
<glyph unicode="&#xe048;" d="M2432 1152q53 0 90.5 -37.5t37.5 -90.5v-256q0 -192 -69.5 -369.5t-189 -311t-285 -223t-352.5 -112.5v-264h384q53 0 90.5 -37.5t37.5 -90.5t-37.5 -90.5t-90.5 -37.5h-1024q-53 0 -90.5 37.5t-37.5 90.5t37.5 90.5t90.5 37.5h384v264q-187 23 -352.5 112.5t-285 223 t-189 311t-69.5 369.5v256q0 53 37.5 90.5t90.5 37.5t90.5 -37.5t37.5 -90.5v-256q0 -209 103 -385.5t279.5 -279.5t385.5 -103t385.5 103t279.5 279.5t103 385.5v256q0 53 37.5 90.5t90.5 37.5zM1536 2304q212 0 362 -150t150 -362v-1024q0 -212 -150 -362t-362 -150 t-362 150t-150 362v1024q0 212 150 362t362 150zM1536 2048q-106 0 -181 -75t-75 -181v-1024q0 -106 75 -181t181 -75t181 75t75 181v1024q0 106 -75 181t-181 75z" />
<glyph unicode="&#xe049;" d="M1536 1920q234 0 447.5 -91.5t367.5 -245.5t245.5 -367.5t91.5 -447.5t-91.5 -447.5t-245.5 -367.5t-367.5 -245.5t-447.5 -91.5t-447.5 91.5t-367.5 245.5t-245.5 367.5t-91.5 447.5t91.5 447.5t245.5 367.5t367.5 245.5t447.5 91.5zM1536 1664q-182 0 -348 -71 t-286 -191t-191 -286t-71 -348t71 -348t191 -286t286 -191t348 -71t348 71t286 191t191 286t71 348t-71 348t-191 286t-286 191t-348 71z" />
<glyph unicode="&#xe050;" d="M2176 1792q53 0 90.5 -37.5t37.5 -90.5q0 -54 -37 -91l-806 -805l806 -806q37 -37 37 -91q0 -53 -37.5 -90t-90.5 -37q-54 0 -91 37l-896 896q-37 39 -37 91q0 51 37 90l896 896q38 38 91 38zM768 1792q53 0 90.5 -37.5t37.5 -90.5v-1792q0 -53 -37.5 -90.5t-90.5 -37.5 t-90.5 37.5t-37.5 90.5v1792q0 53 37.5 90.5t90.5 37.5z" />
<glyph unicode="&#xe051;" d="M2304 1792q53 0 90.5 -37.5t37.5 -90.5t-38 -91l-805 -805l805 -805q38 -38 38 -91t-37.5 -90.5t-90.5 -37.5q-54 0 -91 37l-896 896q-37 37 -37 91t37 91l896 896q37 37 91 37zM1536 1792q53 0 90.5 -37.5t37.5 -90.5t-38 -91l-805 -805l805 -805q38 -38 38 -91 t-37.5 -90.5t-90.5 -37.5q-54 0 -91 37l-896 896q-37 37 -37 91t37 91l896 896q37 37 91 37z" />
<glyph unicode="&#xe052;" d="M512 -384v2304l1920 -1152zM1934 768l-1166 700v-1400z" />
<glyph unicode="&#xe053;" d="M2048 1920q159 0 271.5 -112.5t112.5 -271.5v-1536q0 -159 -112.5 -271.5t-271.5 -112.5t-271.5 112.5t-112.5 271.5v1536q0 159 112.5 271.5t271.5 112.5zM1024 1920q159 0 271.5 -112.5t112.5 -271.5v-1536q0 -159 -112.5 -271.5t-271.5 -112.5t-271.5 112.5 t-112.5 271.5v1536q0 159 112.5 271.5t271.5 112.5zM1024 1664q-53 0 -90.5 -37.5t-37.5 -90.5v-1536q0 -53 37.5 -90.5t90.5 -37.5t90.5 37.5t37.5 90.5v1536q0 53 -37.5 90.5t-90.5 37.5zM2048 1664q-53 0 -90.5 -37.5t-37.5 -90.5v-1536q0 -53 37.5 -90.5t90.5 -37.5 t90.5 37.5t37.5 90.5v1536q0 53 -37.5 90.5t-90.5 37.5z" />
<glyph unicode="&#xe054;" d="M768 1920h1536q159 0 271.5 -112.5t112.5 -271.5v-1536q0 -159 -112.5 -271.5t-271.5 -112.5h-1536q-159 0 -271.5 112.5t-112.5 271.5v1536q0 159 112.5 271.5t271.5 112.5zM2304 1664h-1536q-53 0 -90.5 -37.5t-37.5 -90.5v-1536q0 -53 37.5 -90.5t90.5 -37.5h1536 q53 0 90.5 37.5t37.5 90.5v1536q0 53 -37.5 90.5t-90.5 37.5z" />
<glyph unicode="&#xe055;" d="M1408 1792q53 0 90 -37l896 -896q38 -38 38 -91t-38 -91l-896 -896q-37 -37 -90 -37t-90.5 37.5t-37.5 90.5q0 54 37 91l805 805l-805 805q-37 37 -37 91q0 55 36.5 91.5t91.5 36.5zM640 1792q53 0 90 -37l896 -896q38 -38 38 -91t-38 -91l-896 -896q-37 -37 -90 -37 t-90.5 37.5t-37.5 90.5q0 54 37 91l805 805l-805 805q-37 37 -37 91q0 55 36.5 91.5t91.5 36.5z" />
<glyph unicode="&#xe056;" d="M768 1792q53 0 91 -38l896 -896q37 -37 37 -90q0 -54 -37 -91l-896 -896q-37 -37 -91 -37q-53 0 -90.5 37t-37.5 90q0 52 37 91l806 806l-806 805q-37 39 -37 91q0 53 37.5 90.5t90.5 37.5zM2176 1792q53 0 90.5 -37.5t37.5 -90.5v-1792q0 -53 -37.5 -90.5t-90.5 -37.5 t-90.5 37.5t-37.5 90.5v1792q0 53 37.5 90.5t90.5 37.5z" />
<glyph unicode="&#xe057;" d="M2304 2304q53 0 91 -38l512 -512q37 -37 37 -90q0 -54 -37 -91l-512 -512q-37 -37 -91 -37q-53 0 -90.5 37.5t-37.5 90.5q0 51 37 90l294 294h-203q-180 0 -338 -78.5t-265 -214.5q-165 -210 -165 -475q0 -267 -128 -496q-68 -123 -165 -221q-142 -145 -331 -226 t-400 -81h-256q-53 0 -90.5 37.5t-37.5 90.5t37.5 90.5t90.5 37.5h256q181 0 338.5 78t264.5 214q165 210 165 476q0 267 128 496q69 124 165 220q142 145 331 226.5t400 81.5h203l-294 293q-37 39 -37 91q0 53 37.5 90.5t90.5 37.5zM2304 512q53 0 91 -38l512 -512 q37 -37 37 -91q0 -53 -37 -90l-512 -512q-37 -37 -91 -37q-53 0 -90.5 37t-37.5 90q0 52 37 91l294 294h-203q-211 0 -400 81t-331 226q77 113 128 241q107 -136 264.5 -214t338.5 -78h203l-294 293q-37 39 -37 91q0 53 37.5 90.5t90.5 37.5zM256 1792h256q211 0 400 -81.5 t331 -226.5q-78 -115 -128 -241q-107 136 -265 214.5t-338 78.5h-256q-53 0 -90.5 37.5t-37.5 90.5t37.5 90.5t90.5 37.5z" />
<glyph unicode="&#xe058;" d="M128 640h768q53 0 90.5 -37.5t37.5 -90.5t-37.5 -90.5t-90.5 -37.5h-432l347 -339l1 -1q148 -149 339 -225q183 -75 385 -75t385 75q100 41 187.5 100.5t149 122t112 134t81 131.5t51.5 120q18 50 66 72.5t97 5.5q50 -18 72.5 -65.5t5.5 -96.5q-42 -128 -122 -254 t-180 -226q-184 -184 -423 -281q-232 -94 -482 -94q-249 0 -482 94q-239 97 -423 281l-375 367v-486q0 -53 -37.5 -90.5t-90.5 -37.5t-90.5 37.5t-37.5 90.5v768q0 53 37.5 90.5t90.5 37.5zM1536 2048q249 0 482 -94q239 -97 423 -281l2 -2l373 -365v486q0 53 37.5 90.5 t90.5 37.5t90.5 -37.5t37.5 -90.5v-768q0 -53 -37.5 -90.5t-90.5 -37.5h-768q-53 0 -90.5 37.5t-37.5 90.5t37.5 90.5t90.5 37.5h432l-348 340q-146 146 -332.5 223t-391.5 77q-202 0 -385 -75q-191 -76 -339 -225q-60 -53 -131.5 -161.5t-110.5 -221.5q-18 -50 -66 -72.5 t-97 -5.5q-50 18 -72.5 65.5t-5.5 96.5q42 128 122 254t180 226q184 184 423 281q233 94 482 94z" />
<glyph unicode="&#xe059;" d="M512 2048h640l256 -384h1152q159 0 271.5 -112.5t112.5 -271.5v-1408q0 -159 -112.5 -271.5t-271.5 -112.5h-2048q-159 0 -271.5 112.5t-112.5 271.5v1792q0 159 112.5 271.5t271.5 112.5zM1271 1408l-247 384h-512q-53 0 -90.5 -37.5t-37.5 -90.5v-1792 q0 -53 37.5 -90.5t90.5 -37.5h2048q53 0 90.5 37.5t37.5 90.5v1408q0 53 -37.5 90.5t-90.5 37.5h-1289z" />
<glyph unicode="&#xe060;" d="M1536 2176q225 0 437.5 -63t390 -179t320 -273.5t237 -353.5t130.5 -411q21 -124 21 -256h-1408v-768q0 -106 75 -181t181 -75t181 75t75 181q0 53 37.5 90.5t90.5 37.5t90.5 -37.5t37.5 -90.5q0 -212 -150 -362t-362 -150t-362 150t-150 362v768h-1408q0 132 21 256 q36 215 130.5 411t237 353.5t320 273.5t390 179t437.5 63zM1536 1920q-304 0 -571 -134t-445.5 -367t-237.5 -523h2508q-59 290 -237.5 523t-445.5 367t-571 134z" />
<glyph unicode="&#xe061;" d="M1536 2048q43 0 85 -3q-85 -183 -85 -381q0 -182 71 -348t191 -286t286 -191t348 -71q198 0 381 85q3 -42 3 -85q0 -174 -46 -340t-128.5 -306.5t-200.5 -258.5t-258.5 -200.5t-306.5 -128.5t-340 -46t-340 46t-306.5 128.5t-258.5 200.5t-200.5 258.5t-128.5 306.5 t-46 340t46 340t128.5 306.5t200.5 258.5t258.5 200.5t306.5 128.5t340 46zM1284 1761q-165 -42 -307.5 -136t-245 -223t-161 -293.5t-58.5 -340.5q0 -208 81 -397.5t218.5 -327t327 -218.5t397.5 -81q176 0 340.5 58.5t293.5 161t223 245t136 307.5q-43 -4 -97 -4 q-234 0 -447 91.5t-367.5 246t-246 367.5t-91.5 447q0 54 4 97z" />
<glyph unicode="&#xe062;" d="M1472 2304q185 0 316.5 -131.5t131.5 -316.5v-1377q119 -99 187.5 -240.5t68.5 -302.5q0 -143 -55.5 -273.5t-150 -225t-225 -150t-273.5 -55.5t-273.5 55.5t-225 150t-150 225t-55.5 273.5q0 161 68.5 302.5t187.5 240.5v1377q0 185 131.5 316.5t316.5 131.5zM1472 2048 q-80 0 -136 -56t-56 -136v-1516q-115 -55 -185.5 -163.5t-70.5 -240.5q0 -185 131.5 -316.5t316.5 -131.5t316.5 131.5t131.5 316.5q0 132 -70.5 240.5t-185.5 163.5v1516q0 80 -56 136t-136 56z" />
<glyph unicode="&#xe063;" d="M721 1327l815 815l815 -815q166 -166 251.5 -378t85.5 -437q0 -226 -85.5 -437t-251.5 -377t-378 -252t-437 -86t-437 86t-378 252q-165 166 -251 377.5t-86 436.5t86 437t251 378zM2170 1146l-634 634l-634 -634q-128 -129 -195 -294t-67 -340t66.5 -339.5t195.5 -293.5 t294 -196t340 -67q176 0 340.5 67t293.5 196t195.5 293t66.5 340q0 175 -66.5 340t-195.5 294z" />
<glyph unicode="&#xe064;" d="M1536 1536q209 0 385.5 -103t279.5 -279.5t103 -385.5t-103 -385.5t-279.5 -279.5t-385.5 -103t-385.5 103t-279.5 279.5t-103 385.5t103 385.5t279.5 279.5t385.5 103zM722 82q53 0 90.5 -38t37.5 -91q0 -52 -38 -90l-181 -181q-38 -38 -90 -38q-53 0 -90.5 37.5 t-37.5 90.5q0 54 37 91l181 181q38 38 91 38zM1536 -256q53 0 90.5 -37.5t37.5 -90.5v-256q0 -53 -37.5 -90.5t-90.5 -37.5t-90.5 37.5t-37.5 90.5v256q0 53 37.5 90.5t90.5 37.5zM128 896h256q53 0 90.5 -37.5t37.5 -90.5t-37.5 -90.5t-90.5 -37.5h-256q-53 0 -90.5 37.5 t-37.5 90.5t37.5 90.5t90.5 37.5zM1536 1280q-212 0 -362 -150t-150 -362t150 -362t362 -150t362 150t150 362t-150 362t-362 150zM2351 82q52 0 90 -38l181 -181q38 -38 38 -91q0 -52 -38 -90t-90 -38q-53 0 -91 38l-181 181q-37 37 -37 90t37.5 91t90.5 38zM541 1892 q52 0 90 -38l181 -181q38 -38 38 -90q0 -53 -37.5 -90.5t-90.5 -37.5q-54 0 -91 37l-181 181q-37 37 -37 91q0 53 37.5 90.5t90.5 37.5zM1536 2304q53 0 90.5 -37.5t37.5 -90.5v-256q0 -53 -37.5 -90.5t-90.5 -37.5t-90.5 37.5t-37.5 90.5v256q0 53 37.5 90.5t90.5 37.5z M2688 896h256q53 0 90.5 -37.5t37.5 -90.5t-37.5 -90.5t-90.5 -37.5h-256q-53 0 -90.5 37.5t-37.5 90.5t37.5 90.5t90.5 37.5zM2532 1892q52 0 90 -38t38 -90q0 -53 -38 -91l-181 -181q-37 -37 -90 -37q-55 0 -91.5 36.5t-36.5 91.5q0 53 37 90l181 181q38 38 91 38z" />
<glyph unicode="&#xe065;" d="M1920 1920q234 0 447.5 -91.5t367.5 -245.5t245.5 -367.5t91.5 -447.5t-91.5 -447.5t-245.5 -367.5t-367.5 -245.5t-447.5 -91.5h-1152q-209 0 -385.5 103t-279.5 279.5t-103 385.5t103 385.5t279.5 279.5t385.5 103h66q79 223 238 396.5t380.5 272.5t467.5 99z M1920 1664q-166 0 -319.5 -59.5t-270 -161.5t-195 -244t-101.5 -303h-266q-212 0 -362 -150t-150 -362t150 -362t362 -150h1152q182 0 348 71t286 191t191 286t71 348t-71 348t-191 286t-286 191t-348 71z" />
<glyph unicode="&#xe066;" d="M1920 2048q234 0 447.5 -91.5t367.5 -245.5t245.5 -367.5t91.5 -447.5q0 -218 -79.5 -419t-216 -352t-326 -250.5t-402.5 -123.5v258q215 31 390.5 155.5t276.5 317t101 414.5q0 182 -71 348t-191 286t-286 191t-348 71q-166 0 -319.5 -59.5t-270 -161.5t-195 -244 t-101.5 -303h-266q-212 0 -362 -150t-150 -362q0 -116 45.5 -215t119.5 -162.5t164.5 -99t182.5 -35.5h512v-256h-512q-209 0 -385.5 103t-279.5 279.5t-103 385.5t103 385.5t279.5 279.5t385.5 103h66q79 223 238 396.5t380.5 272.5t467.5 99zM1664 1024q53 0 91 -38 l384 -384q37 -37 37 -90q0 -55 -36.5 -91.5t-91.5 -36.5q-54 0 -91 37l-165 166v-843q0 -53 -37.5 -90.5t-90.5 -37.5t-90.5 37.5t-37.5 90.5v843l-165 -166q-37 -37 -91 -37q-53 0 -90.5 37.5t-37.5 90.5q0 51 37 90l384 384q38 38 91 38z" />
<glyph unicode="&#xe067;" d="M1920 2048q234 0 447.5 -91.5t367.5 -245.5t245.5 -367.5t91.5 -447.5q0 -255 -105 -482t-290 -387.5t-420 -232.5l63 62q54 55 84 128q28 68 28 148q0 20 -1 28q178 124 281.5 317.5t103.5 418.5q0 182 -71 348t-191 286t-286 191t-348 71q-166 0 -319.5 -59.5 t-270 -161.5t-195 -244t-101.5 -303h-266q-212 0 -362 -150t-150 -362q0 -116 45.5 -215t119.5 -162.5t164.5 -99t182.5 -35.5h150q35 -88 90 -144l113 -112h-353q-209 0 -385.5 103t-279.5 279.5t-103 385.5t103 385.5t279.5 279.5t385.5 103h66q79 223 238 396.5 t380.5 272.5t467.5 99zM1664 1024q53 0 90.5 -37.5t37.5 -90.5v-843l165 166q37 37 91 37q55 0 91.5 -36.5t36.5 -91.5q0 -54 -37 -91l-384 -384q-37 -37 -91 -37t-91 37l-384 384q-37 39 -37 91q0 53 37.5 90.5t90.5 37.5q54 0 91 -37l165 -166v843q0 53 37.5 90.5 t90.5 37.5z" />
<glyph unicode="&#xe068;" d="M640 2304h1792q159 0 271.5 -112.5t112.5 -271.5v-1792q0 -159 -112.5 -271.5t-271.5 -112.5h-512v256h512q53 0 90.5 37.5t37.5 90.5v1792q0 53 -37.5 90.5t-90.5 37.5h-1792q-53 0 -90.5 -37.5t-37.5 -90.5v-1792q0 -53 37.5 -90.5t90.5 -37.5h512v-256h-512 q-159 0 -271.5 112.5t-112.5 271.5v1792q0 159 112.5 271.5t271.5 112.5zM1536 1408q54 0 91 -37l512 -512q37 -37 37 -91q0 -53 -37.5 -90.5t-90.5 -37.5q-52 0 -91 37l-293 294v-1611q0 -53 -37.5 -90.5t-90.5 -37.5t-90.5 37.5t-37.5 90.5v1611l-293 -294 q-39 -37 -91 -37q-53 0 -90.5 37.5t-37.5 90.5q0 52 37 91l512 512q37 37 91 37z" />
<glyph unicode="&#xe069;" d="M1920 1792h512q159 0 271.5 -112.5t112.5 -271.5v-1792q0 -159 -112.5 -271.5t-271.5 -112.5h-1792q-159 0 -271.5 112.5t-112.5 271.5v1792q0 159 112.5 271.5t271.5 112.5h512v-256h-512q-53 0 -90.5 -37.5t-37.5 -90.5v-1792q0 -53 37.5 -90.5t90.5 -37.5h1792 q53 0 90.5 37.5t37.5 90.5v1792q0 53 -37.5 90.5t-90.5 37.5h-512v256zM1536 2304q53 0 90.5 -37.5t37.5 -90.5v-1611l293 294q37 37 91 37q55 0 91.5 -36.5t36.5 -91.5q0 -54 -37 -91l-512 -512q-37 -37 -91 -37t-91 37l-512 512q-37 39 -37 91q0 53 37.5 90.5t90.5 37.5 q54 0 91 -37l293 -294v1611q0 53 37.5 90.5t90.5 37.5z" />
<glyph unicode="&#xe070;" d="M0 896l3072 1408l-1408 -3072l-384 1280zM1714 -44l838 1828l-1828 -838l762 -228z" />
<glyph unicode="&#xe071;" d="M1536 2176q287 0 547.5 -111.5t449 -300t300 -449t111.5 -547.5t-111.5 -547.5t-300 -449t-449 -300t-547.5 -111.5t-547.5 111.5t-449 300t-300 449t-111.5 547.5t111.5 547.5t300 449t449 300t547.5 111.5zM1664 1913v-377q0 -53 -37.5 -90.5t-90.5 -37.5t-90.5 37.5 t-37.5 90.5v377q-198 -22 -375.5 -109t-311.5 -221t-221 -311.5t-109 -375.5h377q53 0 90.5 -37.5t37.5 -90.5t-37.5 -90.5t-90.5 -37.5h-377q22 -198 109 -375.5t221 -311.5t311.5 -221t375.5 -109v377q0 53 37.5 90.5t90.5 37.5t90.5 -37.5t37.5 -90.5v-377 q198 22 375.5 109t311.5 221t221 311.5t109 375.5h-377q-53 0 -90.5 37.5t-37.5 90.5t37.5 90.5t90.5 37.5h377q-22 198 -109 375.5t-221 311.5t-311.5 221t-375.5 109z" />
<glyph unicode="&#xe072;" d="M2048 1664l1024 640v-2432l-1024 -640l-1024 640l-1024 -640v2432l1024 640zM896 94v1827l-640 -400v-1827zM1920 1442l-768 481v-1829l768 -480v1828zM2816 14v1828l-640 -400v-1828z" />
<glyph unicode="&#xe073;" d="M384 1664h1920q159 0 271.5 -112.5t112.5 -271.5q159 0 271.5 -112.5t112.5 -271.5v-256q0 -159 -112.5 -271.5t-271.5 -112.5q0 -159 -112.5 -271.5t-271.5 -112.5h-1920q-159 0 -271.5 112.5t-112.5 271.5v1024q0 159 112.5 271.5t271.5 112.5zM2304 1408h-1920 q-53 0 -90.5 -37.5t-37.5 -90.5v-1024q0 -53 37.5 -90.5t90.5 -37.5h1920q53 0 90.5 37.5t37.5 90.5v1024q0 53 -37.5 90.5t-90.5 37.5zM2688 1024v-512q53 0 90.5 37.5t37.5 90.5v256q0 53 -37.5 90.5t-90.5 37.5z" />
<glyph unicode="&#xe074;" d="M1536 2304q209 0 385.5 -103t279.5 -279.5t103 -385.5v-384q0 -160 -62 -303t-173 -249q292 -46 519 -135.5t355.5 -211.5t128.5 -257v-252q0 -159 -112.5 -271.5t-271.5 -112.5h-2304q-159 0 -271.5 112.5t-112.5 271.5v253q0 135 128.5 257t355 211.5t518.5 134.5 q-110 107 -172 249.5t-62 302.5v384q0 209 103 385.5t279.5 279.5t385.5 103zM1536 384q-278 0 -536.5 -44.5t-450.5 -124.5q-77 -32 -137.5 -68t-92 -65t-47.5 -50.5t-16 -34.5v-253q0 -53 37.5 -90.5t90.5 -37.5h2304q53 0 90.5 37.5t37.5 90.5v252q0 13 -16 34.5 t-47.5 50.5t-92 65t-137.5 69q-192 80 -450.5 124.5t-536.5 44.5zM1536 2048q-212 0 -362 -150t-150 -362v-384q0 -212 150 -362t362 -150t362 150t150 362v384q0 212 -150 362t-362 150z" />
<glyph unicode="&#xe075;" d="M1280 2048h512q159 0 271.5 -112.5t112.5 -271.5v-128h384q159 0 271.5 -112.5t112.5 -271.5v-1280q0 -159 -112.5 -271.5t-271.5 -112.5h-2048q-159 0 -271.5 112.5t-112.5 271.5v1280q0 159 112.5 271.5t271.5 112.5h384v128q0 159 112.5 271.5t271.5 112.5zM640 -256 v1536h-128q-53 0 -90.5 -37.5t-37.5 -90.5v-1280q0 -53 37.5 -90.5t90.5 -37.5h128zM2176 -256v1536h-1280v-1536h1280zM2560 1280h-128v-1536h128q53 0 90.5 37.5t37.5 90.5v1280q0 53 -37.5 90.5t-90.5 37.5zM1792 1792h-512q-53 0 -90.5 -37.5t-37.5 -90.5v-128h768v128 q0 53 -37.5 90.5t-90.5 37.5z" />
<glyph unicode="&#xe076;" d="M512 2176h2048q159 0 271.5 -112.5t112.5 -271.5v-1408q0 -159 -112.5 -271.5t-271.5 -112.5h-1024l-896 -640v640h-128q-159 0 -271.5 112.5t-112.5 271.5v1408q0 159 112.5 271.5t271.5 112.5zM2560 1920h-2048q-53 0 -90.5 -37.5t-37.5 -90.5v-1408q0 -53 37.5 -90.5 t90.5 -37.5h384v-399l558 399h1106q53 0 90.5 37.5t37.5 90.5v1408q0 53 -37.5 90.5t-90.5 37.5z" />
<glyph unicode="&#xe077;" d="M1536 2176q212 0 362 -150t150 -362q0 -177 -108 -314.5t-276 -180.5v-1546q213 24 402.5 123.5t326 250.5t216 352t79.5 419q0 53 37.5 90.5t90.5 37.5t90.5 -37.5t37.5 -90.5q0 -287 -111.5 -547.5t-300 -449t-449 -300t-547.5 -111.5t-547.5 111.5t-449 300t-300 449 t-111.5 547.5q0 53 37.5 90.5t90.5 37.5t90.5 -37.5t37.5 -90.5q0 -218 79.5 -419t216 -352t326 -250.5t402.5 -123.5v1546q-168 43 -276 180.5t-108 314.5q0 212 150 362t362 150zM1536 1920q-106 0 -181 -75t-75 -181t75 -181t181 -75t181 75t75 181t-75 181t-181 75z" />
<glyph unicode="&#xe078;" d="M1536 2176q36 0 54 -1q186 -7 361.5 -61.5t324.5 -146.5t273.5 -221.5t211 -281.5t135 -330.5t48.5 -365.5t-48.5 -365.5t-135 -330.5t-211 -281.5t-273.5 -221.5t-324.5 -146.5t-361.5 -61.5q-18 -1 -54 -1t-54 1q-186 7 -361.5 61.5t-324.5 146.5t-273.5 221.5 t-211 281.5t-135 330.5t-48.5 365.5t48.5 365.5t135 330.5t211 281.5t273.5 221.5t324.5 146.5t361.5 61.5q18 1 54 1zM901 640h-510q40 -357 275 -627t578 -360q-130 197 -226.5 446.5t-116.5 540.5zM1915 640h-758q10 -128 41.5 -256t70.5 -226.5t90 -194.5t92 -158 t85 -119q44 57 85 119.5t92 158.5t90 194.5t70.5 226t41.5 255.5zM1244 1883q-343 -90 -578 -360t-275 -627h510q35 522 343 987zM2681 640h-509q-37 -523 -344 -987q343 90 578 360t275 627zM1536 1850q-44 -57 -84.5 -119.5t-92 -158.5t-90.5 -194.5t-70.5 -226 t-41.5 -255.5h758q-10 128 -41.5 256t-70.5 226.5t-90 194.5t-92 158t-85 119zM1828 1883q307 -464 344 -987h509q-40 357 -275 627t-578 360z" />
<glyph unicode="&#xe079;" d="M128 1664l1408 640l1408 -640v-1792l-1408 -640l-1408 640v1792zM1408 942l-1024 465v-1370l1024 -466v1371zM2688 37v1370l-1024 -465v-1371zM2480 1594l-944 429l-944 -429l944 -429z" />
<glyph unicode="&#xe080;" d="M1408 2048q249 0 482 -94q239 -97 423 -281q1 -1 375 -367v486q0 53 37.5 90.5t90.5 37.5t90.5 -37.5t37.5 -90.5v-768q0 -53 -37.5 -90.5t-90.5 -37.5h-768q-53 0 -90.5 37.5t-37.5 90.5t37.5 90.5t90.5 37.5h432q-278 270 -348 340q-149 149 -339 225q-183 75 -385 75 t-385 -75q-191 -76 -339 -225q-148 -148 -225 -339q-75 -183 -75 -385t75 -385q77 -191 225 -339q148 -149 339 -225q183 -75 385 -75t385 75q190 76 339 225q166 166 242 383q17 50 65 72.5t98 5.5q50 -18 73 -66t5 -98q-46 -131 -124.5 -256t-177.5 -222 q-184 -184 -423 -281q-233 -94 -482 -94t-482 94q-239 97 -423 281t-281 423q-94 233 -94 482t94 482q97 239 281 423t423 281q233 94 482 94z" />
<glyph unicode="&#xe081;" d="M2304 2048q212 0 362 -150t150 -362t-150 -362t-362 -150q-113 0 -213.5 46.5t-172.5 129.5l-649 -325q11 -53 11 -107t-11 -107l649 -325q72 83 172.5 129.5t213.5 46.5q212 0 362 -150t150 -362t-150 -362t-362 -150t-362 150t-150 362q0 54 11 107l-649 325 q-72 -83 -172.5 -129.5t-213.5 -46.5q-212 0 -362 150t-150 362t150 362t362 150q113 0 213.5 -46.5t172.5 -129.5l649 325q-11 53 -11 107q0 212 150 362t362 150zM768 1024q-106 0 -181 -75t-75 -181t75 -181t181 -75t181 75t75 181t-75 181t-181 75zM2304 256 q-106 0 -181 -75t-75 -181t75 -181t181 -75t181 75t75 181t-75 181t-181 75zM2304 1792q-106 0 -181 -75t-75 -181t75 -181t181 -75t181 75t75 181t-75 181t-181 75z" />
<glyph unicode="&#xe082;" d="M2304 2176h256q159 0 271.5 -112.5t112.5 -271.5v-256q0 -53 -37.5 -90.5t-90.5 -37.5t-90.5 37.5t-37.5 90.5v256q0 53 -37.5 90.5t-90.5 37.5h-256q-53 0 -90.5 37.5t-37.5 90.5t37.5 90.5t90.5 37.5zM256 128q53 0 90.5 -37.5t37.5 -90.5v-256q0 -53 37.5 -90.5 t90.5 -37.5h256q53 0 90.5 -37.5t37.5 -90.5t-37.5 -90.5t-90.5 -37.5h-256q-159 0 -271.5 112.5t-112.5 271.5v256q0 53 37.5 90.5t90.5 37.5zM256 1152q53 0 90.5 -37.5t37.5 -90.5v-512q0 -53 -37.5 -90.5t-90.5 -37.5t-90.5 37.5t-37.5 90.5v512q0 53 37.5 90.5 t90.5 37.5zM1280 -384h512q53 0 90.5 -37.5t37.5 -90.5t-37.5 -90.5t-90.5 -37.5h-512q-53 0 -90.5 37.5t-37.5 90.5t37.5 90.5t90.5 37.5zM512 2176h256q53 0 90.5 -37.5t37.5 -90.5t-37.5 -90.5t-90.5 -37.5h-256q-53 0 -90.5 -37.5t-37.5 -90.5v-256q0 -53 -37.5 -90.5 t-90.5 -37.5t-90.5 37.5t-37.5 90.5v256q0 159 112.5 271.5t271.5 112.5zM2816 128q53 0 90.5 -37.5t37.5 -90.5v-256q0 -159 -112.5 -271.5t-271.5 -112.5h-256q-53 0 -90.5 37.5t-37.5 90.5t37.5 90.5t90.5 37.5h256q53 0 90.5 37.5t37.5 90.5v256q0 53 37.5 90.5 t90.5 37.5zM2816 1152q53 0 90.5 -37.5t37.5 -90.5v-512q0 -53 -37.5 -90.5t-90.5 -37.5t-90.5 37.5t-37.5 90.5v512q0 53 37.5 90.5t90.5 37.5zM1280 2176h512q53 0 90.5 -37.5t37.5 -90.5t-37.5 -90.5t-90.5 -37.5h-512q-53 0 -90.5 37.5t-37.5 90.5t37.5 90.5t90.5 37.5z " />
<glyph unicode="&#xe083;" d="M1536 1408q53 0 90.5 -37.5t37.5 -90.5v-384h384q53 0 90.5 -37.5t37.5 -90.5t-37.5 -90.5t-90.5 -37.5h-384v-384q0 -53 -37.5 -90.5t-90.5 -37.5t-90.5 37.5t-37.5 90.5v384h-384q-53 0 -90.5 37.5t-37.5 90.5t37.5 90.5t90.5 37.5h384v384q0 53 37.5 90.5t90.5 37.5z M256 128q53 0 90.5 -37.5t37.5 -90.5v-256q0 -53 37.5 -90.5t90.5 -37.5h256q53 0 90.5 -37.5t37.5 -90.5t-37.5 -90.5t-90.5 -37.5h-256q-159 0 -271.5 112.5t-112.5 271.5v256q0 53 37.5 90.5t90.5 37.5zM256 1152q53 0 90.5 -37.5t37.5 -90.5v-512q0 -53 -37.5 -90.5 t-90.5 -37.5t-90.5 37.5t-37.5 90.5v512q0 53 37.5 90.5t90.5 37.5zM1280 -384h512q53 0 90.5 -37.5t37.5 -90.5t-37.5 -90.5t-90.5 -37.5h-512q-53 0 -90.5 37.5t-37.5 90.5t37.5 90.5t90.5 37.5zM512 2176h256q53 0 90.5 -37.5t37.5 -90.5t-37.5 -90.5t-90.5 -37.5h-256 q-53 0 -90.5 -37.5t-37.5 -90.5v-256q0 -53 -37.5 -90.5t-90.5 -37.5t-90.5 37.5t-37.5 90.5v256q0 159 112.5 271.5t271.5 112.5zM2816 128q53 0 90.5 -37.5t37.5 -90.5v-256q0 -159 -112.5 -271.5t-271.5 -112.5h-256q-53 0 -90.5 37.5t-37.5 90.5t37.5 90.5t90.5 37.5 h256q53 0 90.5 37.5t37.5 90.5v256q0 53 37.5 90.5t90.5 37.5zM2816 1152q53 0 90.5 -37.5t37.5 -90.5v-512q0 -53 -37.5 -90.5t-90.5 -37.5t-90.5 37.5t-37.5 90.5v512q0 53 37.5 90.5t90.5 37.5zM1280 2176h512q53 0 90.5 -37.5t37.5 -90.5t-37.5 -90.5t-90.5 -37.5h-512 q-53 0 -90.5 37.5t-37.5 90.5t37.5 90.5t90.5 37.5zM2304 2176h256q159 0 271.5 -112.5t112.5 -271.5v-256q0 -53 -37.5 -90.5t-90.5 -37.5t-90.5 37.5t-37.5 90.5v256q0 53 -37.5 90.5t-90.5 37.5h-256q-53 0 -90.5 37.5t-37.5 90.5t37.5 90.5t90.5 37.5z" />
<glyph unicode="&#xe084;" d="M2304 2176h256q159 0 271.5 -112.5t112.5 -271.5v-256q0 -53 -37.5 -90.5t-90.5 -37.5t-90.5 37.5t-37.5 90.5v256q0 53 -37.5 90.5t-90.5 37.5h-256q-53 0 -90.5 37.5t-37.5 90.5t37.5 90.5t90.5 37.5zM256 128q53 0 90.5 -37.5t37.5 -90.5v-256q0 -53 37.5 -90.5 t90.5 -37.5h256q53 0 90.5 -37.5t37.5 -90.5t-37.5 -90.5t-90.5 -37.5h-256q-159 0 -271.5 112.5t-112.5 271.5v256q0 53 37.5 90.5t90.5 37.5zM256 1152q53 0 90.5 -37.5t37.5 -90.5v-512q0 -53 -37.5 -90.5t-90.5 -37.5t-90.5 37.5t-37.5 90.5v512q0 53 37.5 90.5 t90.5 37.5zM1280 -384h512q53 0 90.5 -37.5t37.5 -90.5t-37.5 -90.5t-90.5 -37.5h-512q-53 0 -90.5 37.5t-37.5 90.5t37.5 90.5t90.5 37.5zM512 2176h256q53 0 90.5 -37.5t37.5 -90.5t-37.5 -90.5t-90.5 -37.5h-256q-53 0 -90.5 -37.5t-37.5 -90.5v-256q0 -53 -37.5 -90.5 t-90.5 -37.5t-90.5 37.5t-37.5 90.5v256q0 159 112.5 271.5t271.5 112.5zM2816 128q53 0 90.5 -37.5t37.5 -90.5v-256q0 -159 -112.5 -271.5t-271.5 -112.5h-256q-53 0 -90.5 37.5t-37.5 90.5t37.5 90.5t90.5 37.5h256q53 0 90.5 37.5t37.5 90.5v256q0 53 37.5 90.5 t90.5 37.5zM1024 896h1024q53 0 90.5 -37.5t37.5 -90.5t-37.5 -90.5t-90.5 -37.5h-1024q-53 0 -90.5 37.5t-37.5 90.5t37.5 90.5t90.5 37.5zM2816 1152q53 0 90.5 -37.5t37.5 -90.5v-512q0 -53 -37.5 -90.5t-90.5 -37.5t-90.5 37.5t-37.5 90.5v512q0 53 37.5 90.5t90.5 37.5 zM1280 2176h512q53 0 90.5 -37.5t37.5 -90.5t-37.5 -90.5t-90.5 -37.5h-512q-53 0 -90.5 37.5t-37.5 90.5t37.5 90.5t90.5 37.5z" />
<glyph unicode="&#xe085;" d="M128 2176h1448l1256 -1255q112 -112 112 -271q0 -160 -112 -272l-906 -906q-112 -112 -271 -112q-160 0 -272 112l-1255 1256v1448zM2651 740l-1181 1180h-1086v-1086l1180 -1181q38 -37 91 -37t90 37l906 906q37 37 37 90t-37 91zM1088 1536q133 0 226.5 -93.5 t93.5 -226.5t-93.5 -226.5t-226.5 -93.5t-226.5 93.5t-93.5 226.5t93.5 226.5t226.5 93.5zM1088 1280q-26 0 -45 -19t-19 -45t19 -45t45 -19t45 19t19 45t-19 45t-45 19z" />
<glyph unicode="&#xe086;" d="M2441 1545q177 -177 274 -407q101 -238 101 -498t-101 -498q-97 -230 -274 -407t-407 -274q-238 -101 -498 -101t-498 101q-230 97 -407 274t-274 407q-101 238 -101 498t101 498q97 230 274 407q37 37 90 37t91 -37t38 -90t-38 -91q-141 -141 -220 -325 q-80 -192 -80 -399t80 -399q79 -184 220 -325t325 -220q192 -80 399 -80t399 80q184 79 325 220t220 325q80 192 80 399t-80 399q-79 184 -220 325q-38 38 -38 91t38 90t91 37t90 -37zM1536 2176q53 0 90.5 -37.5t37.5 -90.5v-1280q0 -53 -37.5 -90.5t-90.5 -37.5 t-90.5 37.5t-37.5 90.5v1280q0 53 37.5 90.5t90.5 37.5z" />
<glyph unicode="&#xe087;" d="M2304 2048q212 0 362 -150t150 -362t-150 -362t-362 -150h-256v-512h256q212 0 362 -150t150 -362t-150 -362t-362 -150t-362 150t-150 362v1v255h-512v-256q0 -212 -150 -362t-362 -150t-362 150t-150 362t150 362t362 150h256v512h-256q-212 0 -362 150t-150 362 t150 362t362 150t362 -150t150 -362v-256h512v256q0 212 150 362t362 150zM1024 0v256h-256q-106 0 -181 -75t-75 -181t75 -181t181 -75t181 75t75 181zM768 1792q-106 0 -181 -75t-75 -181t75 -181t181 -75h256v256q0 106 -75 181t-181 75zM1792 512v512h-512v-512h512z M2304 256h-256v-256q0 -106 75 -181t181 -75t181 75t75 181t-75 181t-181 75zM2304 1792q-106 0 -181 -75t-75 -181v-256h256q106 0 181 75t75 181t-75 181t-181 75z" />
<glyph unicode="&#xe088;" d="M384 1792h640q73 0 111 -64l987 -1728h566q53 0 90.5 -37.5t37.5 -90.5t-37.5 -90.5t-90.5 -37.5h-640q-73 0 -111 64l-987 1728h-566q-53 0 -90.5 37.5t-37.5 90.5t37.5 90.5t90.5 37.5zM1792 1792h640q53 0 90.5 -37.5t37.5 -90.5t-37.5 -90.5t-90.5 -37.5h-640 q-53 0 -90.5 37.5t-37.5 90.5t37.5 90.5t90.5 37.5z" />
<glyph unicode="&#xe089;" d="M1677 2169q259 -26 491.5 -143t408.5 -310q173 -190 269 -431q98 -249 98 -517q0 -287 -111 -548q-103 -247 -301 -448q-201 -198 -448 -301q-261 -111 -548 -111q-268 0 -517 98q-241 96 -431 269q-193 176 -310 408.5t-143 491.5q-5 57 32.5 99t95.5 42q49 0 85.5 -33 t41.5 -82q21 -213 116.5 -403t254.5 -334q155 -143 352 -220q204 -80 423 -80q235 0 448 90q202 85 367 247q162 165 247 367q90 213 90 448q0 219 -80 423q-77 197 -220 352q-144 159 -334 254.5t-403 116.5q-49 5 -82 41.5t-33 85.5q0 38 14.5 65t38.5 40t45.5 18t42.5 5z M256 2176h768q53 0 90.5 -37.5t37.5 -90.5t-37.5 -90.5t-90.5 -37.5h-459l1062 -1062q37 -36 37 -90q0 -55 -36.5 -91.5t-91.5 -36.5q-54 0 -91 37l-1061 1062v-459q0 -53 -37.5 -90.5t-90.5 -37.5t-90.5 37.5t-37.5 90.5v768q0 53 37.5 90.5t90.5 37.5z" />
<glyph unicode="&#xe090;" d="M2560 2176q159 0 271.5 -112.5t112.5 -271.5v-2048q0 -159 -112.5 -271.5t-271.5 -112.5t-271.5 112.5t-112.5 271.5v2048q0 159 112.5 271.5t271.5 112.5zM512 640q159 0 271.5 -112.5t112.5 -271.5v-512q0 -159 -112.5 -271.5t-271.5 -112.5t-271.5 112.5t-112.5 271.5 v512q0 159 112.5 271.5t271.5 112.5zM512 384q-53 0 -90.5 -37.5t-37.5 -90.5v-512q0 -53 37.5 -90.5t90.5 -37.5t90.5 37.5t37.5 90.5v512q0 53 -37.5 90.5t-90.5 37.5zM1536 1408q159 0 271.5 -112.5t112.5 -271.5v-1280q0 -159 -112.5 -271.5t-271.5 -112.5t-271.5 112.5 t-112.5 271.5v1280q0 159 112.5 271.5t271.5 112.5zM1536 1152q-53 0 -90.5 -37.5t-37.5 -90.5v-1280q0 -53 37.5 -90.5t90.5 -37.5t90.5 37.5t37.5 90.5v1280q0 53 -37.5 90.5t-90.5 37.5zM2560 1920q-53 0 -90.5 -37.5t-37.5 -90.5v-2048q0 -53 37.5 -90.5t90.5 -37.5 t90.5 37.5t37.5 90.5v2048q0 53 -37.5 90.5t-90.5 37.5z" />
<glyph unicode="&#xe091;" d="M1536 2176q159 0 271.5 -112.5t112.5 -271.5v-2048q0 -159 -112.5 -271.5t-271.5 -112.5t-271.5 112.5t-112.5 271.5v2048q0 159 112.5 271.5t271.5 112.5zM512 640q159 0 271.5 -112.5t112.5 -271.5v-512q0 -159 -112.5 -271.5t-271.5 -112.5t-271.5 112.5t-112.5 271.5 v512q0 159 112.5 271.5t271.5 112.5zM512 384q-53 0 -90.5 -37.5t-37.5 -90.5v-512q0 -53 37.5 -90.5t90.5 -37.5t90.5 37.5t37.5 90.5v512q0 53 -37.5 90.5t-90.5 37.5zM1536 1920q-53 0 -90.5 -37.5t-37.5 -90.5v-2048q0 -53 37.5 -90.5t90.5 -37.5t90.5 37.5t37.5 90.5 v2048q0 53 -37.5 90.5t-90.5 37.5zM2560 1408q159 0 271.5 -112.5t112.5 -271.5v-1280q0 -159 -112.5 -271.5t-271.5 -112.5t-271.5 112.5t-112.5 271.5v1280q0 159 112.5 271.5t271.5 112.5zM2560 1152q-53 0 -90.5 -37.5t-37.5 -90.5v-1280q0 -53 37.5 -90.5t90.5 -37.5 t90.5 37.5t37.5 90.5v1280q0 53 -37.5 90.5t-90.5 37.5z" />
<glyph unicode="&#xe092;" d="M1536 2176q287 0 547.5 -111.5t449 -300t300 -449t111.5 -547.5t-111.5 -547.5t-300 -449t-449 -300t-547.5 -111.5t-547.5 111.5t-449 300t-300 449t-111.5 547.5t111.5 547.5t300 449t449 300t547.5 111.5zM1408 640v1273q-213 -24 -402.5 -123.5t-326 -250.5 t-216 -352t-79.5 -419q0 -234 91.5 -447.5t245.5 -367.5t367.5 -245.5t447.5 -91.5q218 0 419 79.5t352 216t250.5 326t123.5 402.5h-1273zM1664 1913v-1017h1017q-22 198 -109 375.5t-221 311.5t-311.5 221t-375.5 109z" />
<glyph unicode="&#xe093;" d="M1190 1152l346 1065l346 -1065h1120l-906 -629l346 -1046l-906 663l-906 -658l346 1041l-906 629h1120zM1696 896l-160 509l-160 -509h-497l400 -265l-157 -473l415 300l413 -303l-157 473l399 268h-496z" />
<glyph unicode="&#xe094;" d="M1280 1792q53 0 90.5 -37.5t37.5 -90.5q0 -54 -38 -91l-677 -677h1995q53 0 90.5 -37.5t37.5 -90.5t-37.5 -90.5t-90.5 -37.5h-1995l677 -677q38 -37 38 -91q0 -53 -37.5 -90.5t-90.5 -37.5q-54 0 -91 37l-896 896q-37 39 -37 91t37 91l896 896q38 37 91 37z" />
<glyph unicode="&#xe095;" d="M1792 1792q54 0 91 -37l896 -896q37 -37 37 -91t-37 -91l-896 -896q-37 -37 -91 -37q-55 0 -91.5 36.5t-36.5 91.5q0 54 37 91l678 677h-1995q-53 0 -90.5 37.5t-37.5 90.5t37.5 90.5t90.5 37.5h1995l-678 677q-37 37 -37 91q0 55 36.5 91.5t91.5 36.5z" />
<glyph unicode="&#xe096;" d="M1536 2048q54 0 91 -37l896 -896q37 -37 37 -91q0 -55 -36.5 -91.5t-91.5 -36.5q-54 0 -91 37l-677 678v-1995q0 -53 -37.5 -90.5t-90.5 -37.5t-90.5 37.5t-37.5 90.5v1995l-677 -678q-37 -37 -91 -37q-55 0 -91.5 36.5t-36.5 91.5q0 54 37 91l896 896q37 37 91 37z" />
<glyph unicode="&#xe097;" d="M1536 2048q53 0 90.5 -37.5t37.5 -90.5v-1995l677 678q37 37 91 37q55 0 91.5 -36.5t36.5 -91.5q0 -54 -37 -91l-896 -896q-37 -37 -91 -37t-91 37l-896 896q-37 37 -37 91q0 55 36.5 91.5t91.5 36.5q54 0 91 -37l677 -678v1995q0 53 37.5 90.5t90.5 37.5z" />
<glyph unicode="&#xe098;" d="M640 1280l640 640v-2304l-640 640h-256q-159 0 -271.5 112.5t-112.5 271.5v251q0 159 112.5 274t271.5 115h256zM1024 234v1073l-278 -283h-362q-52 0 -90 -39.5t-38 -93.5v-251q0 -53 37.5 -90.5t90.5 -37.5h362zM1860 1195q37 0 69.5 -21t48.5 -57q70 -169 70 -349 q0 -183 -70 -347q-15 -36 -47.5 -57.5t-70.5 -21.5q-47 0 -87.5 35.5t-40.5 92.5q0 23 10 50q50 118 50 248q0 129 -50 249q-10 23 -10 50q0 57 38.5 92.5t89.5 35.5zM2251 1552q72 0 110 -63q99 -165 147 -341q52 -188 52 -380q0 -191 -52 -381q-49 -178 -147 -341 q-37 -62 -110 -62q-50 0 -89 36t-39 92q0 35 19 66q78 130 119 278q43 150 43 312q0 161 -43 311q-41 148 -119 279q-19 29 -19 65q0 54 39.5 91.5t88.5 37.5zM2634 1903q69 0 106 -56q163 -239 247.5 -514t84.5 -565t-84.5 -565t-247.5 -514q-36 -56 -106 -56 q-52 0 -89.5 36t-37.5 92q0 40 22 72q287 421 287 935q0 252 -73 490t-214 445q-22 32 -22 72q0 56 37.5 92t89.5 36z" />
<glyph unicode="&#xe099;" d="M768 1280l640 640v-2304l-640 640h-256q-159 0 -271.5 112.5t-112.5 271.5v251q0 159 112.5 274t271.5 115h256zM1152 234v1073l-278 -283h-362q-52 0 -90 -39.5t-38 -93.5v-251q0 -53 37.5 -90.5t90.5 -37.5h362zM2688 1280q55 0 91.5 -36.5t36.5 -91.5q0 -54 -37 -91 l-294 -293l294 -293q37 -37 37 -91q0 -55 -36.5 -91.5t-91.5 -36.5q-54 0 -91 37l-293 294l-293 -294q-37 -37 -91 -37q-55 0 -91.5 36.5t-36.5 91.5q0 54 37 91l294 293l-294 293q-37 37 -37 91q0 55 36.5 91.5t91.5 36.5q54 0 91 -37l293 -294l293 294q37 37 91 37z" />
<glyph unicode="&#xe100;" d="M2048 2176h512q159 0 271.5 -112.5t112.5 -271.5v-2048q0 -159 -112.5 -271.5t-271.5 -112.5h-512q-159 0 -271.5 112.5t-112.5 271.5v2048q0 159 112.5 271.5t271.5 112.5zM512 640h512q159 0 271.5 -112.5t112.5 -271.5v-512q0 -159 -112.5 -271.5t-271.5 -112.5h-512 q-159 0 -271.5 112.5t-112.5 271.5v512q0 159 112.5 271.5t271.5 112.5zM1024 384h-512q-53 0 -90.5 -37.5t-37.5 -90.5v-512q0 -53 37.5 -90.5t90.5 -37.5h512q53 0 90.5 37.5t37.5 90.5v512q0 53 -37.5 90.5t-90.5 37.5zM512 2176h512q159 0 271.5 -112.5t112.5 -271.5 v-512q0 -159 -112.5 -271.5t-271.5 -112.5h-512q-159 0 -271.5 112.5t-112.5 271.5v512q0 159 112.5 271.5t271.5 112.5zM1024 1920h-512q-53 0 -90.5 -37.5t-37.5 -90.5v-512q0 -53 37.5 -90.5t90.5 -37.5h512q53 0 90.5 37.5t37.5 90.5v512q0 53 -37.5 90.5t-90.5 37.5z M2560 1920h-512q-53 0 -90.5 -37.5t-37.5 -90.5v-2048q0 -53 37.5 -90.5t90.5 -37.5h512q53 0 90.5 37.5t37.5 90.5v2048q0 53 -37.5 90.5t-90.5 37.5z" />
<glyph unicode="&#xe101;" d="M512 2176h512q159 0 271.5 -112.5t112.5 -271.5v-2048q0 -159 -112.5 -271.5t-271.5 -112.5h-512q-159 0 -271.5 112.5t-112.5 271.5v2048q0 159 112.5 271.5t271.5 112.5zM1024 1920h-512q-53 0 -90.5 -37.5t-37.5 -90.5v-2048q0 -53 37.5 -90.5t90.5 -37.5h512 q53 0 90.5 37.5t37.5 90.5v2048q0 53 -37.5 90.5t-90.5 37.5zM2048 640h512q159 0 271.5 -112.5t112.5 -271.5v-512q0 -159 -112.5 -271.5t-271.5 -112.5h-512q-159 0 -271.5 112.5t-112.5 271.5v512q0 159 112.5 271.5t271.5 112.5zM2560 384h-512q-53 0 -90.5 -37.5 t-37.5 -90.5v-512q0 -53 37.5 -90.5t90.5 -37.5h512q53 0 90.5 37.5t37.5 90.5v512q0 53 -37.5 90.5t-90.5 37.5zM2048 2176h512q159 0 271.5 -112.5t112.5 -271.5v-512q0 -159 -112.5 -271.5t-271.5 -112.5h-512q-159 0 -271.5 112.5t-112.5 271.5v512q0 159 112.5 271.5 t271.5 112.5zM2560 1920h-512q-53 0 -90.5 -37.5t-37.5 -90.5v-512q0 -53 37.5 -90.5t90.5 -37.5h512q53 0 90.5 37.5t37.5 90.5v512q0 53 -37.5 90.5t-90.5 37.5z" />
<glyph unicode="&#xe102;" d="M2048 2176h512q159 0 271.5 -112.5t112.5 -271.5v-512q0 -159 -112.5 -271.5t-271.5 -112.5h-512q-159 0 -271.5 112.5t-112.5 271.5v512q0 159 112.5 271.5t271.5 112.5zM512 640h512q159 0 271.5 -112.5t112.5 -271.5v-512q0 -159 -112.5 -271.5t-271.5 -112.5h-512 q-159 0 -271.5 112.5t-112.5 271.5v512q0 159 112.5 271.5t271.5 112.5zM1024 384h-512q-53 0 -90.5 -37.5t-37.5 -90.5v-512q0 -53 37.5 -90.5t90.5 -37.5h512q53 0 90.5 37.5t37.5 90.5v512q0 53 -37.5 90.5t-90.5 37.5zM512 2176h512q159 0 271.5 -112.5t112.5 -271.5 v-512q0 -159 -112.5 -271.5t-271.5 -112.5h-512q-159 0 -271.5 112.5t-112.5 271.5v512q0 159 112.5 271.5t271.5 112.5zM1024 1920h-512q-53 0 -90.5 -37.5t-37.5 -90.5v-512q0 -53 37.5 -90.5t90.5 -37.5h512q53 0 90.5 37.5t37.5 90.5v512q0 53 -37.5 90.5t-90.5 37.5z M2048 640h512q159 0 271.5 -112.5t112.5 -271.5v-512q0 -159 -112.5 -271.5t-271.5 -112.5h-512q-159 0 -271.5 112.5t-112.5 271.5v512q0 159 112.5 271.5t271.5 112.5zM2560 384h-512q-53 0 -90.5 -37.5t-37.5 -90.5v-512q0 -53 37.5 -90.5t90.5 -37.5h512q53 0 90.5 37.5 t37.5 90.5v512q0 53 -37.5 90.5t-90.5 37.5zM2560 1920h-512q-53 0 -90.5 -37.5t-37.5 -90.5v-512q0 -53 37.5 -90.5t90.5 -37.5h512q53 0 90.5 37.5t37.5 90.5v512q0 53 -37.5 90.5t-90.5 37.5z" />
<glyph unicode="&#xe103;" d="M512 2176h2048q159 0 271.5 -112.5t112.5 -271.5v-2048q0 -159 -112.5 -271.5t-271.5 -112.5h-2048q-159 0 -271.5 112.5t-112.5 271.5v2048q0 159 112.5 271.5t271.5 112.5zM1408 -384v1024h-1024v-896q0 -53 37.5 -90.5t90.5 -37.5h896zM1408 896v1024h-896 q-53 0 -90.5 -37.5t-37.5 -90.5v-896h1024zM2688 -256v896h-1024v-1024h896q53 0 90.5 37.5t37.5 90.5zM2560 1920h-896v-1024h1024v896q0 53 -37.5 90.5t-90.5 37.5z" />
<glyph unicode="&#xe104;" d="M384 1920h2304q159 0 271.5 -112.5t112.5 -271.5v-1536q0 -159 -112.5 -271.5t-271.5 -112.5h-2304q-159 0 -271.5 112.5t-112.5 271.5v1536q0 159 112.5 271.5t271.5 112.5zM896 -128v1792h-512q-53 0 -90.5 -37.5t-37.5 -90.5v-1536q0 -53 37.5 -90.5t90.5 -37.5h512z M1920 -128v1792h-768v-1792h768zM2688 1664h-512v-1792h512q53 0 90.5 37.5t37.5 90.5v1536q0 53 -37.5 90.5t-90.5 37.5z" />
<glyph unicode="&#xe105;" d="M2080 353q52 0 90 -38l362 -362q38 -38 38 -91q0 -52 -38 -90t-90 -38q-53 0 -91 38l-362 362q-37 37 -37 91q0 53 37.5 90.5t90.5 37.5zM993 353q53 0 90.5 -37.5t37.5 -90.5t-38 -91l-362 -362q-38 -38 -90 -38q-53 0 -90.5 37.5t-37.5 90.5q0 54 37 91l362 362 q38 38 91 38zM256 896h512q53 0 90.5 -37.5t37.5 -90.5t-37.5 -90.5t-90.5 -37.5h-512q-53 0 -90.5 37.5t-37.5 90.5t37.5 90.5t90.5 37.5zM1536 128q53 0 90.5 -37.5t37.5 -90.5v-512q0 -53 -37.5 -90.5t-90.5 -37.5t-90.5 37.5t-37.5 90.5v512q0 53 37.5 90.5t90.5 37.5z M631 1802q52 0 90 -38l362 -362q38 -38 38 -90q0 -53 -37.5 -90.5t-90.5 -37.5q-54 0 -91 37l-362 362q-37 37 -37 91q0 53 37.5 90.5t90.5 37.5zM2304 896h512q53 0 90.5 -37.5t37.5 -90.5t-37.5 -90.5t-90.5 -37.5h-512q-53 0 -90.5 37.5t-37.5 90.5t37.5 90.5t90.5 37.5z M1536 2176q53 0 90.5 -37.5t37.5 -90.5v-512q0 -53 -37.5 -90.5t-90.5 -37.5t-90.5 37.5t-37.5 90.5v512q0 53 37.5 90.5t90.5 37.5zM2442 1802q52 0 90 -38t38 -90q0 -53 -38 -91l-362 -362q-37 -37 -90 -37q-55 0 -91.5 36.5t-36.5 91.5q0 53 37 90l362 362q38 38 91 38z " />
<glyph unicode="&#xe106;" d="M1536 2304q130 0 248.5 -51t204 -136.5t136.5 -204t51 -248.5v-128h512v-1920q0 -159 -112.5 -271.5t-271.5 -112.5h-1536q-159 0 -271.5 112.5t-112.5 271.5v1920h512v128q0 130 51 248.5t136.5 204t204 136.5t248.5 51zM2432 -384v1664h-1792v-1664q0 -53 37.5 -90.5 t90.5 -37.5h1536q53 0 90.5 37.5t37.5 90.5zM1536 2048q-159 0 -271.5 -112.5t-112.5 -271.5v-128h768v128q0 159 -112.5 271.5t-271.5 112.5z" />
<glyph unicode="&#xe107;" d="M1536 2176q287 0 547.5 -111.5t449 -300t300 -449t111.5 -547.5t-111.5 -547.5t-300 -449t-449 -300t-547.5 -111.5t-547.5 111.5t-449 300t-300 449t-111.5 547.5t111.5 547.5t300 449t449 300t547.5 111.5zM2255 -132l-1619 1619q-120 -151 -186 -335t-66 -384 q0 -234 91.5 -447.5t245.5 -367.5t367.5 -245.5t447.5 -91.5q201 0 385 65.5t334 186.5zM1536 1920q-201 0 -385 -65.5t-334 -186.5l1619 -1619q121 150 186.5 334t65.5 385q0 234 -91.5 447.5t-245.5 367.5t-367.5 245.5t-447.5 91.5z" />
<glyph unicode="&#xe108;" d="M896 2176q106 0 228 -26.5t235 -64l226 -75t235 -64t228 -26.5q108 0 213 13t179 32t132.5 38t87.5 32l28 13v-1792q-10 -5 -30 -13.5t-84.5 -31t-134.5 -39t-176.5 -30.5t-214.5 -14q-106 0 -228 26.5t-235 64l-226 75t-235 64t-228 26.5q-191 0 -384 -43v-853 q0 -53 -37.5 -90.5t-90.5 -37.5t-90.5 37.5t-37.5 90.5v2560q10 5 30 13.5t84.5 31t134.5 39t176.5 30.5t214.5 14zM896 1920q-196 0 -384 -51v-1267q192 38 384 38q142 0 284 -32.5t323 -92.5q23 -8 86.5 -29.5t93 -31t86.5 -26t95.5 -24t88.5 -14t95 -6.5q196 0 384 51 v1267q-192 -38 -384 -38q-142 0 -284 32.5t-323 92.5q-23 8 -86.5 29.5t-93 31t-86.5 26t-95.5 24t-88.5 14t-95 6.5z" />
<glyph unicode="&#xe109;" d="M1280 2176h512q159 0 271.5 -112.5t112.5 -271.5v-128h512q53 0 90.5 -37.5t37.5 -90.5t-37.5 -90.5t-90.5 -37.5h-128v-1536q0 -159 -112.5 -271.5t-271.5 -112.5h-1280q-159 0 -271.5 112.5t-112.5 271.5v1536h-128q-53 0 -90.5 37.5t-37.5 90.5t37.5 90.5t90.5 37.5 h512v128q0 159 112.5 271.5t271.5 112.5zM2304 -128v1536h-1536v-1536q0 -53 37.5 -90.5t90.5 -37.5h1280q53 0 90.5 37.5t37.5 90.5zM1792 1920h-512q-53 0 -90.5 -37.5t-37.5 -90.5v-128h768v128q0 53 -37.5 90.5t-90.5 37.5z" />
<glyph unicode="&#xe110;" d="M2176 2176h384q159 0 271.5 -112.5t112.5 -271.5v-384q0 -53 -37.5 -90.5t-90.5 -37.5t-90.5 37.5t-37.5 90.5v384q0 53 -37.5 90.5t-90.5 37.5h-384q-53 0 -90.5 37.5t-37.5 90.5t37.5 90.5t90.5 37.5zM256 256q53 0 90.5 -37.5t37.5 -90.5v-384q0 -53 37.5 -90.5 t90.5 -37.5h384q53 0 90.5 -37.5t37.5 -90.5t-37.5 -90.5t-90.5 -37.5h-384q-159 0 -271.5 112.5t-112.5 271.5v384q0 53 37.5 90.5t90.5 37.5zM512 2176h384q53 0 90.5 -37.5t37.5 -90.5t-37.5 -90.5t-90.5 -37.5h-384q-53 0 -90.5 -37.5t-37.5 -90.5v-384 q0 -53 -37.5 -90.5t-90.5 -37.5t-90.5 37.5t-37.5 90.5v384q0 159 112.5 271.5t271.5 112.5zM2816 256q53 0 90.5 -37.5t37.5 -90.5v-384q0 -159 -112.5 -271.5t-271.5 -112.5h-384q-53 0 -90.5 37.5t-37.5 90.5t37.5 90.5t90.5 37.5h384q53 0 90.5 37.5t37.5 90.5v384 q0 53 37.5 90.5t90.5 37.5z" />
<glyph unicode="&#xe111;" d="M2176 2176q53 0 90.5 -37.5t37.5 -90.5v-384q0 -53 37.5 -90.5t90.5 -37.5h384q53 0 90.5 -37.5t37.5 -90.5t-37.5 -90.5t-90.5 -37.5h-384q-159 0 -271.5 112.5t-112.5 271.5v384q0 53 37.5 90.5t90.5 37.5zM256 256h384q159 0 271.5 -112.5t112.5 -271.5v-384 q0 -53 -37.5 -90.5t-90.5 -37.5t-90.5 37.5t-37.5 90.5v384q0 53 -37.5 90.5t-90.5 37.5h-384q-53 0 -90.5 37.5t-37.5 90.5t37.5 90.5t90.5 37.5zM896 2176q53 0 90.5 -37.5t37.5 -90.5v-384q0 -159 -112.5 -271.5t-271.5 -112.5h-384q-53 0 -90.5 37.5t-37.5 90.5 t37.5 90.5t90.5 37.5h384q53 0 90.5 37.5t37.5 90.5v384q0 53 37.5 90.5t90.5 37.5zM2432 256h384q53 0 90.5 -37.5t37.5 -90.5t-37.5 -90.5t-90.5 -37.5h-384q-53 0 -90.5 -37.5t-37.5 -90.5v-384q0 -53 -37.5 -90.5t-90.5 -37.5t-90.5 37.5t-37.5 90.5v384 q0 159 112.5 271.5t271.5 112.5z" />
<glyph unicode="&#xe112;" d="M1792 641q53 0 91 -38l805 -805v587q0 53 37.5 90.5t90.5 37.5t90.5 -37.5t37.5 -90.5v-896q0 -53 -38 -91t-91 -38h-896q-53 0 -90.5 37.5t-37.5 90.5t37.5 90.5t90.5 37.5h587l-805 805q-37 39 -37 91q0 53 37.5 91t90.5 38zM256 2176h896q53 0 90.5 -37.5t37.5 -90.5 t-37.5 -90.5t-90.5 -37.5h-587l805 -804q38 -38 38 -91t-38 -90.5t-91 -37.5q-51 0 -91 37l-804 805v-587q0 -53 -37.5 -90.5t-90.5 -37.5t-90.5 37.5t-37.5 90.5v896q0 53 37.5 90.5t90.5 37.5z" />
<glyph unicode="&#xe113;" d="M256 2176q54 0 91 -37l805 -805v587q0 53 37.5 90.5t90.5 37.5t90.5 -37.5t37.5 -90.5v-896q0 -53 -38 -91t-91 -38h-896q-53 0 -90.5 37.5t-37.5 90.5t37.5 90.5t90.5 37.5h587l-805 805q-37 37 -37 91q0 55 36.5 91.5t91.5 36.5zM1793 640h896q53 0 90.5 -37.5 t37.5 -90.5t-37.5 -90.5t-90.5 -37.5h-587l804 -805q38 -38 38 -91t-37.5 -90.5t-90.5 -37.5q-54 0 -91 37l-805 805v-587q0 -53 -37.5 -90.5t-90.5 -37.5t-90.5 37.5t-37.5 90.5v896q0 53 38 91t91 38z" />
<glyph unicode="&#xe114;" d="M1536 2048q53 0 90.5 -37.5t37.5 -90.5v-1024h1024q53 0 90.5 -37.5t37.5 -90.5t-37.5 -90.5t-90.5 -37.5h-1024v-1024q0 -53 -37.5 -90.5t-90.5 -37.5t-90.5 37.5t-37.5 90.5v1024h-1024q-53 0 -90.5 37.5t-37.5 90.5t37.5 90.5t90.5 37.5h1024v1024q0 53 37.5 90.5 t90.5 37.5z" />
<glyph unicode="&#xe115;" d="M384 896h2304q53 0 90.5 -37.5t37.5 -90.5t-37.5 -90.5t-90.5 -37.5h-2304q-53 0 -90.5 37.5t-37.5 90.5t37.5 90.5t90.5 37.5z" />
<glyph unicode="&#xe116;" d="M2688 1664q55 0 91.5 -36.5t36.5 -91.5q0 -54 -37 -91l-1536 -1536q-37 -37 -91 -37t-91 37l-768 768q-37 37 -37 91q0 55 36.5 91.5t91.5 36.5q54 0 91 -37l677 -678l1445 1446q37 37 91 37z" />
<glyph unicode="&#xe117;" d="M2432 1792q55 0 91.5 -36.5t36.5 -91.5q0 -54 -37 -91l-806 -805l806 -805q37 -37 37 -91q0 -55 -36.5 -91.5t-91.5 -36.5q-54 0 -91 37l-805 806l-805 -806q-37 -37 -91 -37q-55 0 -91.5 36.5t-36.5 91.5q0 54 37 91l806 805l-806 805q-37 37 -37 91q0 55 36.5 91.5 t91.5 36.5q54 0 91 -37l805 -806l805 806q37 37 91 37z" />
<glyph unicode="&#xe118;" d="M1536 2304q54 0 91 -37l452 -453q38 -38 38 -91t-37.5 -90.5t-90.5 -37.5t-91 38l-234 234v-971h971l-234 234q-38 38 -38 91t37.5 90.5t90.5 37.5t91 -38l453 -452q37 -37 37 -91t-37 -90l-453 -453q-38 -38 -91 -38t-90.5 37.5t-37.5 90.5t38 91l234 234h-971v-971 l234 234q38 38 91 38t90.5 -37.5t37.5 -90.5t-38 -91l-452 -453q-37 -37 -91 -37q-53 0 -90 37l-453 453q-38 38 -38 91t37.5 90.5t90.5 37.5t91 -38l234 -234v971h-971l234 -234q38 -38 38 -91t-37.5 -90.5t-90.5 -37.5t-91 38l-453 452q-37 37 -37 91t37 91l453 452 q38 38 91 38t90.5 -37.5t37.5 -90.5t-38 -91l-234 -234h971v971l-234 -234q-38 -38 -91 -38t-90.5 37.5t-37.5 90.5t38 91l452 453q37 37 91 37z" />
<glyph unicode="&#xe119;" d="M1024 1920h1664q159 0 271.5 -112.5t112.5 -271.5v-1536q0 -159 -112.5 -271.5t-271.5 -112.5h-1664l-1024 1152zM2688 1664h-1549l-796 -896l796 -896h1549q53 0 90.5 37.5t37.5 90.5v1536q0 53 -37.5 90.5t-90.5 37.5zM2432 1152q0 -54 -37 -91l-294 -293l294 -293 q37 -37 37 -91q0 -55 -36.5 -91.5t-91.5 -36.5q-54 0 -91 37l-293 294l-293 -294q-37 -37 -91 -37q-53 0 -90.5 37.5t-37.5 90.5q0 52 37 91l294 293l-294 293q-37 39 -37 91q0 53 37.5 90.5t90.5 37.5q54 0 91 -37l293 -294l293 294q37 37 91 37q55 0 91.5 -36.5 t36.5 -91.5z" />
<glyph unicode="&#xe120;" d="M384 1664h2304q53 0 90.5 -37.5t37.5 -90.5t-37.5 -90.5t-90.5 -37.5h-2304q-53 0 -90.5 37.5t-37.5 90.5t37.5 90.5t90.5 37.5zM384 128h2304q53 0 90.5 -37.5t37.5 -90.5t-37.5 -90.5t-90.5 -37.5h-2304q-53 0 -90.5 37.5t-37.5 90.5t37.5 90.5t90.5 37.5zM384 896 h2304q53 0 90.5 -37.5t37.5 -90.5t-37.5 -90.5t-90.5 -37.5h-2304q-53 0 -90.5 37.5t-37.5 90.5t37.5 90.5t90.5 37.5z" />
<glyph unicode="&#xe121;" d="M768 1920h1536l768 -768v-1152q0 -159 -112.5 -271.5t-271.5 -112.5h-2304q-159 0 -271.5 112.5t-112.5 271.5v1152zM2816 0v896h-562q-85 -222 -283.5 -367t-434.5 -145q-157 0 -305 67t-258 183.5t-165 261.5h-552v-896q0 -52 37 -90t91 -38h2304q53 0 90.5 37.5 t37.5 90.5zM2710 1152l-507 512h-1329l-512 -512h662q0 -127 68 -245t187.5 -192.5t256.5 -74.5t256.5 74.5t187.5 192.5t68 245h662z" />
<glyph unicode="&#xe122;" d="M1536 2176q53 0 90.5 -37.5t37.5 -90.5v-1483l421 422q37 37 91 37q55 0 91.5 -36.5t36.5 -91.5q0 -54 -37 -91l-640 -640q-37 -37 -91 -37t-91 37l-640 640q-37 39 -37 91q0 53 37.5 90.5t90.5 37.5q54 0 91 -37l421 -422v1483q0 53 37.5 90.5t90.5 37.5zM2816 384 q53 0 90.5 -37.5t37.5 -90.5v-512q0 -160 -111 -271q-113 -113 -270 -113h-2051q-157 0 -272 112q-112 115 -112 272v512q0 53 37.5 90.5t90.5 37.5t90.5 -37.5t37.5 -90.5v-512q0 -53 37.5 -90.5t90.5 -37.5h2051q52 0 88.5 37.5t36.5 90.5v512q0 53 37.5 90.5t90.5 37.5z " />
<glyph unicode="&#xe123;" d="M1536 2170q54 0 91 -37l640 -640q37 -37 37 -91q0 -55 -36.5 -91.5t-91.5 -36.5q-54 0 -91 37l-421 422v-1483q0 -53 -37.5 -90.5t-90.5 -37.5t-90.5 37.5t-37.5 90.5v1483l-421 -422q-39 -37 -91 -37q-53 0 -90.5 37.5t-37.5 90.5q0 52 37 91l640 640q37 37 91 37z M2816 378q53 0 90.5 -37.5t37.5 -90.5v-512q0 -160 -111 -271q-113 -113 -270 -113h-2051q-157 0 -272 112q-112 115 -112 272v512q0 53 37.5 90.5t90.5 37.5t90.5 -37.5t37.5 -90.5v-512q0 -53 37.5 -90.5t90.5 -37.5h2051q52 0 88.5 37.5t36.5 90.5v512q0 53 37.5 90.5 t90.5 37.5z" />
<glyph unicode="&#xe124;" d="M640 2304h1280l896 -896v-1792q0 -159 -112.5 -271.5t-271.5 -112.5h-1792q-159 0 -271.5 112.5t-112.5 271.5v2304q0 159 112.5 271.5t271.5 112.5zM1664 1152v896h-1024q-54 0 -91 -37t-37 -91v-2304q0 -54 37 -91t91 -37h1792q54 0 91 37t37 91v1536h-896zM2454 1408 l-534 534v-534h534z" />
<glyph unicode="&#xe125;" d="M640 2304h1280l896 -896v-1792q0 -159 -112.5 -271.5t-271.5 -112.5h-1792q-159 0 -271.5 112.5t-112.5 271.5v2304q0 159 112.5 271.5t271.5 112.5zM1536 896q53 0 90.5 -37.5t37.5 -90.5v-256h256q53 0 90.5 -37.5t37.5 -90.5t-37.5 -90.5t-90.5 -37.5h-256v-256 q0 -53 -37.5 -90.5t-90.5 -37.5t-90.5 37.5t-37.5 90.5v256h-256q-53 0 -90.5 37.5t-37.5 90.5t37.5 90.5t90.5 37.5h256v256q0 53 37.5 90.5t90.5 37.5zM1664 1152v896h-1024q-54 0 -91 -37t-37 -91v-2304q0 -54 37 -91t91 -37h1792q54 0 91 37t37 91v1536h-896zM2454 1408 l-534 534v-534h534z" />
<glyph unicode="&#xe126;" d="M640 2304h1280l896 -896v-1792q0 -159 -112.5 -271.5t-271.5 -112.5h-1792q-159 0 -271.5 112.5t-112.5 271.5v2304q0 159 112.5 271.5t271.5 112.5zM1152 512h768q53 0 90.5 -37.5t37.5 -90.5t-37.5 -90.5t-90.5 -37.5h-768q-53 0 -90.5 37.5t-37.5 90.5t37.5 90.5 t90.5 37.5zM1664 1152v896h-1024q-54 0 -91 -37t-37 -91v-2304q0 -54 37 -91t91 -37h1792q54 0 91 37t37 91v1536h-896zM2454 1408l-534 534v-534h534z" />
<glyph unicode="&#xe127;" d="M1536 2176q276 0 535 -105t461 -307t307 -461t105 -535t-105 -535t-307 -461t-461 -307t-535 -105t-535 105t-461 307t-307 461t-105 535t105 535t307 461t461 307t535 105zM1002 1121l-366 366q-124 -155 -188 -340t-64 -379t64 -379t188 -340l366 366 q-106 160 -106 353t106 353zM2255 -132l-366 366q-160 -106 -353 -106t-353 106l-366 -366q155 -124 340 -188t379 -64t379 64t340 188zM1536 1152q-159 0 -271.5 -112.5t-112.5 -271.5t112.5 -271.5t271.5 -112.5t271.5 112.5t112.5 271.5t-112.5 271.5t-271.5 112.5z M1536 1920q-194 0 -379 -64t-340 -188l366 -366q160 106 353 106t353 -106l366 366q-155 124 -340 188t-379 64zM2436 1487l-366 -366q106 -160 106 -353t-106 -353l366 -366q124 155 188 340t64 379t-64 379t-188 340z" />
<glyph unicode="&#xe128;" d="M512 2176h896q53 0 90.5 -37.5t37.5 -90.5t-37.5 -90.5t-90.5 -37.5h-896q-53 0 -90.5 -37.5t-37.5 -90.5v-2048q0 -53 37.5 -90.5t90.5 -37.5h2048q53 0 90.5 37.5t37.5 90.5v896q0 53 37.5 90.5t90.5 37.5t90.5 -37.5t37.5 -90.5v-896q0 -159 -112.5 -271.5 t-271.5 -112.5h-2048q-159 0 -271.5 112.5t-112.5 271.5v2048q0 159 112.5 271.5t271.5 112.5zM2048 2176h768q53 0 90.5 -37.5t37.5 -90.5v-768q0 -53 -37.5 -90.5t-90.5 -37.5t-90.5 37.5t-37.5 90.5v459l-1062 -1062q-37 -37 -90 -37q-55 0 -91.5 36.5t-36.5 91.5 q0 53 37 90l1062 1062h-459q-53 0 -90.5 37.5t-37.5 90.5t37.5 90.5t90.5 37.5z" />
<glyph unicode="&#xe129;" d="M2560 1152q159 0 271.5 -112.5t112.5 -271.5t-112.5 -271.5t-271.5 -112.5t-271.5 112.5t-112.5 271.5t112.5 271.5t271.5 112.5zM512 1152q159 0 271.5 -112.5t112.5 -271.5t-112.5 -271.5t-271.5 -112.5t-271.5 112.5t-112.5 271.5t112.5 271.5t271.5 112.5zM512 896 q-53 0 -90.5 -37.5t-37.5 -90.5t37.5 -90.5t90.5 -37.5t90.5 37.5t37.5 90.5t-37.5 90.5t-90.5 37.5zM1536 1152q159 0 271.5 -112.5t112.5 -271.5t-112.5 -271.5t-271.5 -112.5t-271.5 112.5t-112.5 271.5t112.5 271.5t271.5 112.5zM1536 896q-53 0 -90.5 -37.5 t-37.5 -90.5t37.5 -90.5t90.5 -37.5t90.5 37.5t37.5 90.5t-37.5 90.5t-90.5 37.5zM2560 896q-53 0 -90.5 -37.5t-37.5 -90.5t37.5 -90.5t90.5 -37.5t90.5 37.5t37.5 90.5t-37.5 90.5t-90.5 37.5z" />
</font>
</defs>
</svg>
